百度云资源论坛

 找回密码
 立即注册
搜索

净化之时 The.Cleansing.Hour.2019.720p.BluRay.x264-JustWatch 2.43GB

[复制链接]
百度云资源 发表于 2020-8-22 18:19:30 | 显示全部楼层 |阅读模式
帖子完整标题:净化之时 The.Cleansing.Hour.2019.720p.BluRay.x264-JustWatch 2.43GB




◎译  名 净化之时 / Purification / The Cleansing Hour / Tiempo de purificación / 驱魔直播(台)
◎片  名 The Cleansing Hour
◎年  代 2019
◎产  地 美国
◎类  别 恐怖
◎语  言 英语 / 西班牙语
◎上映日期 2019-11-08(美国)
◎IMDb评分  5.7/10 from 1029 users
◎片  长 94分钟
◎导  演 Damien LeVeck
◎编  剧 Damien LeVeck / Aaron Horwitz
◎主  演 瑞安·古兹曼 Ryan Guzman
       凯尔·加尔纳 Kyle Gallner
       Alix Angelis
       Chris Lew Kum Hoi
       Daniel Hoffmann-Gill
       艾玛·霍泽尔 Emma Holzer
       乔安娜·大卫 Joanna David
       Ionut Grama
       Lidy Aurora Meza
       Griselda Pizena Gafis
       Jury Manuel Meza
       Bogdan Farcas
       塔拉·卡拉西安 Tara Karsian
       Jynarra Brinson
       安娜·乌德鲁伊 Ana Udroiu
       阿姆·阿勒卡迪 Amrou Al-Kadhi
       许峻豪 Jun-ho Heo
       海瑟·莫里斯 Heather Morris
       施万·阿拉丁 Shvan Aladdin
       扎拉·麦克道威尔 Zara McDowell


◎标  签 恐怖 | 驱魔 | 惊悚 | 美国 | 灵异 | 直播 | 美国电影 | 网络

◎简  介   

  千禧一代的企业家Drew和Max进行了网络广播,直播现场驱魔,实际上是精心策划的骗局。但是,当今天的女演员被劫持人质的真正恶魔所神秘地拥有时,他们就会出人意料。更糟的是,被害的受害者是德鲁的未婚夫莱恩。在迅速增长的全球观众面前,这个恶魔使Max受到一系列暴力和侮辱性的挑战,目的是惩罚他的网上娱乐活动。同时,为了挽救他一生的爱,德鲁发现恶魔的险恶动机不仅是为了报仇,而且还揭露了他,马克斯和莱恩相互躲藏的黑暗秘密。仅剩显示时钟,它是
Video
ID                                       : 1
Format                                   : AVC
Format/Info                              : Advanced Video Codec
Format settings                          : CABAC / 8 Ref Frames
Format settings, CABAC                   : Yes
Format settings, Reference frames        : 8 frames
Codec ID                                 : V_MPEG4/ISO/AVC
Duration                                 : 1 h 34 min
Bit rate                                 : 2 945 kb/s
Width                                    : 1 280 pixels
Height                                   : 536 pixels
Display aspect ratio                     : 2.40:1
Frame rate mode                          : Constant
Frame rate                               : 23.976 (24000/1001/189150) FPS
Color space                              : YUV
Chroma subsampling                       : 4:2:0
Bit depth                                : 8 bits
Scan type                                : Progressive
Bits/(Pixel*Frame)                       : 0.179
Stream size                              : 1.95 GiB (81%)
Writing library                          : x264 core 161 r3018 db0d417
Encoding settings                        : cabac=1 / ref=8 / deblock=1:-3:-3 / analyse=0x3:0x133 / me=umh / subme=9 / psy=1 / psy_rd=1.00:0.00 / mixed_ref=1 / me_range=16 / chroma_me=1 / trellis=2 / 8x8dct=1 / cqm=0 / deadzone=21,11 / fast_pskip=0 / chroma_qp_offset=-2 / threads=17 / lookahead_threads=1 / sliced_threads=0 / nr=0 / decimate=1 / interlaced=0 / bluray_compat=0 / constrained_intra=0 / bframes=3 / b_pyramid=2 / b_adapt=2 / b_bias=0 / direct=3 / weightb=1 / open_gop=0 / weightp=2 / keyint=250 / keyint_min=23 / scenecut=40 / intra_refresh=0 / rc_lookahead=60 / rc=crf / mbtree=1 / crf=17.0 / qcomp=0.60 / qpmin=0 / qpmax=69 / qpstep=4 / ip_ratio=1.40 / aq=1:1.00
Language                                 : English
Default                                  : Yes
Forced                                   : No

Audio
ID                                       : 2
Format                                   : AC-3
Format/Info                              : Audio Coding 3
Commercial name                          : Dolby Digital
Codec ID                                 : A_AC3
Duration                                 : 1 h 34 min
Bit rate mode                            : Constant
Bit rate                                 : 640 kb/s
Channel(s)                               : 6 channels
Channel layout                           : L R C LFE Ls Rs
Sampling rate                            : 48.0 kHz
Frame rate                               : 31.250 FPS (1536 SPF)
Compression mode                         : Lossy
Stream size                              : 435 MiB (17%)
Language                                 : English
Service kind                             : Complete Main
Default                                  : Yes
Forced                                   : No

Menu
00:00:00.000                             : en:00:00:00.000
00:08:11.324                             : en:00:08:11.324
00:14:08.014                             : en:00:14:08.014
00:20:48.080                             : en:00:20:48.080
00:28:01.305                             : en:00:28:01.305
00:34:16.221                             : en:00:34:16.221
00:41:57.807                             : en:00:41:57.807
00:48:49.844                             : en:00:48:49.844
00:56:34.725                             : en:00:56:34.725
01:04:50.178                             : en:01:04:50.178
01:12:03.694                             : en:01:12:03.694
01:20:29.867                             : en:01:20:29.867




                                                                                                                                                                                                        


02c8754b32b011122cd730984a25f5db.zip (25.76 KB, 下载次数: 0)

回复

使用道具 举报

小黑屋|百度云资源论坛 |网站地图

本网站所有资源来自网络,如无意中侵犯了您的权益,请发邮件至 [email protected],立即清除相关链接

GMT+8, 2020-9-24 20:19 , Processed in 0.232816 second(s), 23 queries .

Powered by Discuz! X3.2

© 2001-2013 Comsenz Inc.

快速回复 返回顶部 返回列表