百度云资源论坛

 找回密码
 立即注册
搜索

疾速求生 Ride.2018.TRASH.720p.BluRay.x264-GETiT 4.60GB

[复制链接]
百度云资源 发表于 2020-8-22 18:19:30 | 显示全部楼层 |阅读模式
帖子完整标题:疾速求生 Ride.2018.TRASH.720p.BluRay.x264-GETiT 4.60GB




◎译  名 疾速求生
◎片  名 Ride
◎年  代 2018
◎产  地 意大利
◎类  别 动作
◎语  言 意大利语
◎上映日期 2018-09-06(意大利)
◎IMDb评分  4.8/10 from 272 users
◎片  长 102分钟
◎导  演 Jacopo Rondinelli
◎主  演 Ludovic Hughes
       Lorenzo Richelmy
       Simone Labarga


◎标  签 意大利 | 2018 | GoPro | 惊悚 | M意大利

◎简  介   

  ★宛如单车版《飢饿游戏》! 首创全片以GoPro拍摄,激发你的肾上腺素
  ★鬼才新锐导演雅可波荣迪内利,首部长片大胆开创义大利电影崭新娱乐类型
  ★Netflix史诗影集《马可波罗》男主角罗伦佐瑞奇米,化身专业自行车手急速挑战高山峻岭之高危险赛道
  ★曾执导艾米汉默主演的荒漠求生钜作《Mine》的义大利知名编导搭挡法比欧瓜瑠纳、法比欧雷希纳洛,联手编剧刺激冒险新作
  ★年度必看限时求生电影,体验身历其境的极速快感!
  
  神秘高额奖金的单车竞速比赛,背后却出现惊人阴谋,意外展开限时求生赛…
  
  凯尔和马克斯是极限单车手。凯尔有家庭但妻子受不了他不务正业,还整天拿生命当赌注,决定暂时分开并带走女儿;马可斯则欠了地下钱庄没有能力偿还债务,遇到严重的财务危机。他们偶然收到神秘组织「黑色巴比伦」举办的越野竞赛邀请,获胜奖金25万美元,在奖金驱使下决定参加竞赛。没想到比赛开始后竟转变成一场恐怖仪式般的真人实境游戏,中途不仅地形诡谲多变,还同时遭神秘车手追杀,甚至发现比赛背后的惊人阴谋,正威胁他们的生命…这场限时求生赛,他们究竟该如何突破层层关卡,找到比赛/生命的出口呢?
  
  极限运动在世界各地吸引了越来越多玩家,更在2014年就曾缔造过24亿美金的商机,无疑极限运动热潮已遍及全球。义大利知名编导搭挡法比欧瓜瑠纳、法比欧雷希纳洛受到好莱坞的青睐,不仅曾执导艾米汉默主演、在义大利创下140欧元票房的荒漠求生钜作《Mine》,这次更製作及编剧这部宛如单车版《飢饿游戏》的运动冒险新作《疾速求生》。找来擅长特效场面的导演雅可波荣迪内利,更首创全片以GoPro拍摄,也网罗在Netflix史诗影集《马可波罗》累积全球粉丝的罗伦佐瑞奇米,成就绝无仅有的观影体验,就要激发你的肾上腺素!
Video
ID                                       : 1
Format                                   : AVC
Format/Info                              : Advanced Video Codec
Format settings                          : CABAC / 8 Ref Frames
Format settings, CABAC                   : Yes
Format settings, Reference frames        : 8 frames
Codec ID                                 : V_MPEG4/ISO/AVC
Duration                                 : 1 h 41 min
Bit rate                                 : 5 807 kb/s
Width                                    : 1 280 pixels
Height                                   : 690 pixels
Display aspect ratio                     : 1.85:1
Frame rate mode                          : Constant
Frame rate                               : 24.000 FPS
Color space                              : YUV
Chroma subsampling                       : 4:2:0
Bit depth                                : 8 bits
Scan type                                : Progressive
Bits/(Pixel*Frame)                       : 0.274
Stream size                              : 4.13 GiB (90%)
Writing library                          : x264 core 160 r3000 33f9e14
Encoding settings                        : cabac=1 / ref=8 / deblock=1:-3:-3 / analyse=0x3:0x133 / me=umh / subme=9 / psy=1 / psy_rd=1.00:0.00 / mixed_ref=1 / me_range=16 / chroma_me=1 / trellis=2 / 8x8dct=1 / cqm=0 / deadzone=21,11 / fast_pskip=1 / chroma_qp_offset=-2 / threads=18 / lookahead_threads=1 / sliced_threads=0 / nr=0 / decimate=1 / interlaced=0 / bluray_compat=0 / constrained_intra=0 / bframes=3 / b_pyramid=2 / b_adapt=2 / b_bias=0 / direct=3 / weightb=1 / open_gop=0 / weightp=2 / keyint=250 / keyint_min=24 / scenecut=40 / intra_refresh=0 / rc_lookahead=60 / rc=crf / mbtree=1 / crf=20.0 / qcomp=0.60 / qpmin=0 / qpmax=69 / qpstep=4 / ip_ratio=1.40 / aq=3:0.80
Language                                 : English
Default                                  : Yes
Forced                                   : No
Color range                              : Limited
Matrix coefficients                      : BT.709

Audio
ID                                       : 2
Format                                   : AC-3
Format/Info                              : Audio Coding 3
Commercial name                          : Dolby Digital
Codec ID                                 : A_AC3
Duration                                 : 1 h 41 min
Bit rate mode                            : Constant
Bit rate                                 : 640 kb/s
Channel(s)                               : 6 channels
Channel layout                           : L R C LFE Ls Rs
Sampling rate                            : 48.0 kHz
Frame rate                               : 31.250 FPS (1536 SPF)
Compression mode                         : Lossy
Stream size                              : 466 MiB (10%)
Title                                    : ac3
Language                                 : English
Service kind                             : Complete Main
Default                                  : Yes
Forced                                   : No

Text
ID                                       : 3
Format                                   : PGS
Muxing mode                              : zlib
Codec ID                                 : S_HDMV/PGS
Codec ID/Info                            : Picture based subtitle format used on BDs/HD-DVDs
Duration                                 : 1 h 40 min
Bit rate                                 : 12.9 kb/s
Count of elements                        : 1954
Stream size                              : 9.21 MiB (0%)
Title                                    : vob subs
Language                                 : German
Default                                  : No
Forced                                   : No

Menu
00:00:00.000                             : en:00:00:00.000
00:08:54.250                             : en:00:08:54.250
00:16:07.292                             : en:00:16:07.292
00:24:25.708                             : en:00:24:25.708
00:33:05.583                             : en:00:33:05.583
00:41:18.750                             : en:00:41:18.750
00:50:07.500                             : en:00:50:07.500
00:58:44.917                             : en:00:58:44.917
01:07:31.833                             : en:01:07:31.833
01:16:16.292                             : en:01:16:16.292
01:21:39.042                             : en:01:21:39.042
01:33:23.250                             : en:01:33:23.250






54d8bf72c02c66d94af8d3d1ab83cfe3.zip (47.45 KB, 下载次数: 0)

回复

使用道具 举报

小黑屋|百度云资源论坛 |网站地图

本网站所有资源来自网络,如无意中侵犯了您的权益,请发邮件至 [email protected],立即清除相关链接

GMT+8, 2020-9-24 19:25 , Processed in 0.109210 second(s), 23 queries .

Powered by Discuz! X3.2

© 2001-2013 Comsenz Inc.

快速回复 返回顶部 返回列表