百度云资源论坛

 找回密码
 立即注册
搜索

血量子/屍家禁地 Blood.Quantum.2019.720p.BluRay.x264-RCDiVX 4.37GB

[复制链接]
百度云资源 发表于 2020-8-22 18:19:30 | 显示全部楼层 |阅读模式
帖子完整标题:血量子/屍家禁地 Blood.Quantum.2019.720p.BluRay.x264-RCDiVX 4.37GB




◎译  名 血量子 / 屍家禁地(台)
◎片  名 Blood Quantum
◎年  代 2019
◎产  地 加拿大
◎类  别 恐怖
◎语  言 英语 / 米克马克语
◎上映日期 2019-09-05(多伦多电影节)
◎片  长 96分钟
◎导  演 杰夫·巴纳比 Jeff Barnaby
◎编  剧 杰夫·巴纳比 Jeff Barnaby
◎主  演 麦克尔·格雷耶斯 Michael Greyeyes
       Elle-Máijá Tailfeathers
       福勒斯特·古德勒克 Forrest Goodluck
       凯欧瓦·高登 Kiowa Gordon
       奥利维亚·斯克里文 Olivia Scriven
       Stonehorse Lone Goeman
       Brandon Oakes
       威廉·贝勒 William Belleau
       德芙丽·雅各布斯 Devery Jacobs
       加利·法梅尔 Gary Farmer
       费利西亚·舒尔曼 Felicia Shulman
       Lake Delisle
       特洛文·海斯 Trevor Hayes
       Marc Assiniwi
       Natalie Liconti


◎标  签 血腥 | 恐怖 | 加拿大电影 | 丧尸 | PB-BusanC午夜激情单元 | 电影 | 加拿大 | 二星

◎简  介   

  The dead are coming back to life outside the isolated Mi'gMaq reserve of Red Crow, except for its Indigenous inhabitants who are strangely immune to the zombie plague.
Video
ID                                       : 1
Format                                   : AVC
Format/Info                              : Advanced Video Codec
Format settings                          : CABAC / 8 Ref Frames
Format settings, CABAC                   : Yes
Format settings, Reference frames        : 8 frames
Codec ID                                 : V_MPEG4/ISO/AVC
Duration                                 : 1 h 37 min
Bit rate                                 : 5 745 kb/s
Width                                    : 1 280 pixels
Height                                   : 536 pixels
Display aspect ratio                     : 2.40:1
Frame rate mode                          : Constant
Frame rate                               : 24.000 FPS
Color space                              : YUV
Chroma subsampling                       : 4:2:0
Bit depth                                : 8 bits
Scan type                                : Progressive
Bits/(Pixel*Frame)                       : 0.349
Stream size                              : 3.92 GiB (90%)
Writing library                          : x264 core 161 r3018 db0d417
Encoding settings                        : cabac=1 / ref=8 / deblock=1:-3:-3 / analyse=0x3:0x133 / me=umh / subme=9 / psy=1 / psy_rd=1.00:0.00 / mixed_ref=1 / me_range=16 / chroma_me=1 / trellis=2 / 8x8dct=1 / cqm=0 / deadzone=21,11 / fast_pskip=1 / chroma_qp_offset=-2 / threads=17 / lookahead_threads=1 / sliced_threads=0 / nr=0 / decimate=1 / interlaced=0 / bluray_compat=0 / constrained_intra=0 / bframes=3 / b_pyramid=2 / b_adapt=2 / b_bias=0 / direct=3 / weightb=1 / open_gop=0 / weightp=2 / keyint=250 / keyint_min=24 / scenecut=40 / intra_refresh=0 / rc_lookahead=60 / rc=crf / mbtree=1 / crf=15.0 / qcomp=0.60 / qpmin=0 / qpmax=69 / qpstep=4 / ip_ratio=1.40 / aq=1:1.00
Language                                 : English
Default                                  : Yes
Forced                                   : No

Audio
ID                                       : 2
Format                                   : AC-3
Format/Info                              : Audio Coding 3
Commercial name                          : Dolby Digital
Codec ID                                 : A_AC3
Duration                                 : 1 h 37 min
Bit rate mode                            : Constant
Bit rate                                 : 640 kb/s
Channel(s)                               : 6 channels
Channel layout                           : L R C LFE Ls Rs
Sampling rate                            : 48.0 kHz
Frame rate                               : 31.250 FPS (1536 SPF)
Compression mode                         : Lossy
Stream size                              : 447 MiB (10%)
Language                                 : English
Service kind                             : Complete Main
Default                                  : Yes
Forced                                   : No

Text #1
ID                                       : 3
Format                                   : UTF-8
Codec ID                                 : S_TEXT/UTF8
Codec ID/Info                            : UTF-8 Plain Text
Duration                                 : 1 h 17 min
Bit rate                                 : 1 b/s
Count of elements                        : 30
Stream size                              : 637 Bytes (0%)
Title                                    : English Forced
Language                                 : English
Default                                  : Yes
Forced                                   : Yes

Text #2
ID                                       : 4
Format                                   : PGS
Muxing mode                              : zlib
Codec ID                                 : S_HDMV/PGS
Codec ID/Info                            : Picture based subtitle format used on BDs/HD-DVDs
Duration                                 : 1 h 36 min
Bit rate                                 : 12.6 kb/s
Count of elements                        : 1189
Stream size                              : 8.76 MiB (0%)
Title                                    : Danish
Language                                 : Danish
Default                                  : No
Forced                                   : No

Text #3
ID                                       : 5
Format                                   : PGS
Muxing mode                              : zlib
Codec ID                                 : S_HDMV/PGS
Codec ID/Info                            : Picture based subtitle format used on BDs/HD-DVDs
Duration                                 : 1 h 36 min
Bit rate                                 : 13.6 kb/s
Count of elements                        : 1217
Stream size                              : 9.46 MiB (0%)
Title                                    : Norwegian
Language                                 : Norwegian
Default                                  : No
Forced                                   : No

Text #4
ID                                       : 6
Format                                   : PGS
Muxing mode                              : zlib
Codec ID                                 : S_HDMV/PGS
Codec ID/Info                            : Picture based subtitle format used on BDs/HD-DVDs
Duration                                 : 1 h 36 min
Bit rate                                 : 14.0 kb/s
Count of elements                        : 1215
Stream size                              : 9.69 MiB (0%)
Title                                    : Swedish
Language                                 : Swedish
Default                                  : No
Forced                                   : No

Text #5
ID                                       : 7
Format                                   : PGS
Muxing mode                              : zlib
Codec ID                                 : S_HDMV/PGS
Codec ID/Info                            : Picture based subtitle format used on BDs/HD-DVDs
Duration                                 : 1 h 37 min
Bit rate                                 : 13.2 kb/s
Count of elements                        : 1217
Stream size                              : 9.21 MiB (0%)
Title                                    : Finnish
Language                                 : Finnish
Default                                  : No
Forced                                   : No

Menu
00:00:00.000                             : :Chapter 01
00:11:04.500                             : :Chapter 02
00:21:19.500                             : :Chapter 03
00:31:41.500                             : :Chapter 04
00:40:02.000                             : :Chapter 05
00:48:25.500                             : :Chapter 06
00:59:27.000                             : :Chapter 07
01:09:37.500                             : :Chapter 08
01:19:49.000                             : :Chapter 09
01:29:27.500                             : :Chapter 10




                                                                                                                                                                                                        


0d88f68a161624623b45057fc9f8f319.zip (45.14 KB, 下载次数: 0)

回复

使用道具 举报

小黑屋|百度云资源论坛 |网站地图

本网站所有资源来自网络,如无意中侵犯了您的权益,请发邮件至 [email protected],立即清除相关链接

GMT+8, 2020-9-24 18:26 , Processed in 0.106693 second(s), 23 queries .

Powered by Discuz! X3.2

© 2001-2013 Comsenz Inc.

快速回复 返回顶部 返回列表