百度云资源论坛

 找回密码
 立即注册
搜索

广岛 Hiroshima.1953.720p.BluRay.x264-BiPOLAR 7.92GB

[复制链接]
百度云资源 发表于 2020-8-20 08:57:27 | 显示全部楼层 |阅读模式
帖子完整标题:广岛 Hiroshima.1953.720p.BluRay.x264-BiPOLAR 7.92GB




◎译  名 广岛 / Hiroshima
◎片  名 ひろしま
◎年  代 1953
◎产  地 日本
◎类  别 剧情
◎语  言 日语
◎上映日期 1953-10-07
◎IMDb评分  7.7/10 from 190 users
◎片  长 104分钟
◎导  演 关川秀雄 Hideo Sekigawa
◎编  剧 八木隆一郎 Yasutaro Yagi
◎主  演 冈田英次 Eiji Okada
       月丘梦路 Yumeji Tsukioka
       加藤嘉 Yoshi Kat?


◎标  签 日本电影 | 日本 | 战争 | 1953 | 灾难 | 日教组 | 日本,幽灵哥佑佑 | 日本映画

◎简  介   

  日本映画の黄金時代を支えた独立プロによる名作を紹介するシリーズに、原爆投下直後の広島の惨状を描いたドラマが登場。終戦後のある学校で、女生徒が原爆症によって倒れる。同じように被爆している生徒たちの胸には、地獄のような風景が甦っていた。
Video
ID                                       : 1
Format                                   : AVC
Format/Info                              : Advanced Video Codec
Format settings                          : CABAC / 11 Ref Frames
Format settings, CABAC                   : Yes
Format settings, Reference frames        : 11 frames
Codec ID                                 : V_MPEG4/ISO/AVC
Duration                                 : 1 h 44 min
Bit rate                                 : 10.5 Mb/s
Width                                    : 986 pixels
Height                                   : 720 pixels
Display aspect ratio                     : 4:3
Frame rate mode                          : Constant
Frame rate                               : 23.976 (24000/1001/189150) FPS
Color space                              : YUV
Chroma subsampling                       : 4:2:0
Bit depth                                : 8 bits
Scan type                                : Progressive
Bits/(Pixel*Frame)                       : 0.618
Stream size                              : 7.68 GiB (97%)
Writing library                          : x264 core 161 r3018 db0d417
Encoding settings                        : cabac=1 / ref=11 / deblock=1:-3:-3 / analyse=0x3:0x133 / me=umh / subme=10 / psy=1 / psy_rd=1.00:0.15 / mixed_ref=1 / me_range=24 / chroma_me=1 / trellis=2 / 8x8dct=1 / cqm=0 / deadzone=21,11 / fast_pskip=1 / chroma_qp_offset=-3 / threads=18 / lookahead_threads=3 / sliced_threads=0 / nr=0 / decimate=1 / interlaced=0 / bluray_compat=0 / constrained_intra=0 / bframes=8 / b_pyramid=2 / b_adapt=2 / b_bias=0 / direct=3 / weightb=1 / open_gop=0 / weightp=2 / keyint=250 / keyint_min=23 / scenecut=40 / intra_refresh=0 / rc_lookahead=60 / rc=crf / mbtree=1 / crf=17.2 / qcomp=0.60 / qpmin=0 / qpmax=69 / qpstep=4 / ip_ratio=1.40 / aq=3:0.50
Language                                 : English
Default                                  : Yes
Forced                                   : No
Color range                              : Limited
Matrix coefficients                      : BT.709

Audio
ID                                       : 2
Format                                   : FLAC
Format/Info                              : Free Lossless Audio Codec
Codec ID                                 : A_FLAC
Duration                                 : 1 h 44 min
Bit rate mode                            : Variable
Bit rate                                 : 326 kb/s
Channel(s)                               : 2 channels
Channel layout                           : L R
Sampling rate                            : 48.0 kHz
Frame rate                               : 11.719 FPS (4096 SPF)
Bit depth                                : 16 bits
Compression mode                         : Lossless
Stream size                              : 244 MiB (3%)
Writing library                          : libFLAC 1.2.1 (UTC 2007-09-17)
Language                                 : Japanese
Default                                  : Yes
Forced                                   : No

Text #1
ID                                       : 3
Format                                   : UTF-8
Codec ID                                 : S_TEXT/UTF8
Codec ID/Info                            : UTF-8 Plain Text
Duration                                 : 1 h 44 min
Bit rate                                 : 37 b/s
Count of elements                        : 777
Stream size                              : 29.0 KiB (0%)
Title                                    : English
Language                                 : English
Default                                  : Yes
Forced                                   : Yes

Text #2
ID                                       : 4
Format                                   : PGS
Muxing mode                              : zlib
Codec ID                                 : S_HDMV/PGS
Codec ID/Info                            : Picture based subtitle format used on BDs/HD-DVDs
Duration                                 : 1 h 44 min
Bit rate                                 : 6 268 b/s
Count of elements                        : 1556
Stream size                              : 4.68 MiB (0%)
Title                                    : English
Language                                 : English
Default                                  : No
Forced                                   : No

Menu
00:00:00.000                             : en:00:00:00.000
00:09:41.164                             : en:00:09:41.164
00:20:02.451                             : en:00:20:02.451
00:26:58.492                             : en:00:26:58.492
00:39:40.461                             : en:00:39:40.461
00:48:20.773                             : en:00:48:20.773
00:59:59.304                             : en:00:59:59.304
01:09:12.148                             : en:01:09:12.148
01:22:24.314                             : en:01:22:24.314
01:28:55.705                             : en:01:28:55.705
01:40:58.511                             : en:01:40:58.511





ad04e294eca5e4ea0ab1720a2b0241c8.zip (41.06 KB, 下载次数: 0)

回复

使用道具 举报

小黑屋|百度云资源论坛 |网站地图

本网站所有资源来自网络,如无意中侵犯了您的权益,请发邮件至 [email protected],立即清除相关链接

GMT+8, 2020-9-20 20:59 , Processed in 0.106838 second(s), 23 queries .

Powered by Discuz! X3.2

© 2001-2013 Comsenz Inc.

快速回复 返回顶部 返回列表