百度云资源论坛

 找回密码
 立即注册
搜索

玛拉/疯狂节育器 Marla.Mae.2018.720p.BluRay.x264-GETiT 1.53GB

[复制链接]
百度云电影 发表于 2020-8-20 08:57:27 | 显示全部楼层 |阅读模式
帖子完整标题:玛拉/疯狂节育器 Marla.Mae.2018.720p.BluRay.x264-GETiT 1.53GB




◎译  名 玛拉 / 疯狂节育器
◎片  名 Marla Mae
◎年  代 2018
◎产  地 美国
◎类  别 恐怖
◎语  言 英语
◎上映日期 2016(美国)
◎IMDb评分  3.5/10 from 136 users
◎导  演 Lisa van Dam-Bates
◎编  剧 Lisa van Dam-Bates
◎主  演 Tonya M. Skoog
       Lisa van Dam-Bates
       凯蒂·何明 Katie Hemming
       Jason Stange
       蔡斯·帕默 Chase Palmer


◎标  签 美国电影 | 惊悚 | 恐怖 | 不走寻常路

◎简  介   

  当一个女孩去找一个远亲的植入宫内节育器的时候,他犯了一个疯狂的行为,对那些亲近的人有致命的影响。
Video
ID                                       : 1
Format                                   : AVC
Format/Info                              : Advanced Video Codec
Format settings                          : CABAC / 8 Ref Frames
Format settings, CABAC                   : Yes
Format settings, Reference frames        : 8 frames
Codec ID                                 : V_MPEG4/ISO/AVC
Duration                                 : 1 h 30 min
Bit rate                                 : 1 778 kb/s
Width                                    : 1 280 pixels
Height                                   : 536 pixels
Display aspect ratio                     : 2.40:1
Frame rate mode                          : Constant
Frame rate                               : 23.976 (24000/1001/189150) FPS
Color space                              : YUV
Chroma subsampling                       : 4:2:0
Bit depth                                : 8 bits
Scan type                                : Progressive
Bits/(Pixel*Frame)                       : 0.108
Stream size                              : 1.13 GiB (73%)
Writing library                          : x264 core 160 r3000 33f9e14
Encoding settings                        : cabac=1 / ref=8 / deblock=1:-3:-3 / analyse=0x3:0x133 / me=umh / subme=9 / psy=1 / psy_rd=1.00:0.00 / mixed_ref=1 / me_range=16 / chroma_me=1 / trellis=2 / 8x8dct=1 / cqm=0 / deadzone=21,11 / fast_pskip=1 / chroma_qp_offset=-2 / threads=17 / lookahead_threads=1 / sliced_threads=0 / nr=0 / decimate=1 / interlaced=0 / bluray_compat=0 / constrained_intra=0 / bframes=3 / b_pyramid=2 / b_adapt=2 / b_bias=0 / direct=3 / weightb=1 / open_gop=0 / weightp=2 / keyint=250 / keyint_min=23 / scenecut=40 / intra_refresh=0 / rc_lookahead=60 / rc=crf / mbtree=1 / crf=17.0 / qcomp=0.60 / qpmin=0 / qpmax=69 / qpstep=4 / ip_ratio=1.40 / aq=3:0.80
Language                                 : English
Default                                  : Yes
Forced                                   : No
Color range                              : Limited
Matrix coefficients                      : BT.709

Audio
ID                                       : 2
Format                                   : AC-3
Format/Info                              : Audio Coding 3
Commercial name                          : Dolby Digital
Codec ID                                 : A_AC3
Duration                                 : 1 h 30 min
Bit rate mode                            : Constant
Bit rate                                 : 640 kb/s
Channel(s)                               : 6 channels
Channel layout                           : L R C LFE Ls Rs
Sampling rate                            : 48.0 kHz
Frame rate                               : 31.250 FPS (1536 SPF)
Compression mode                         : Lossy
Stream size                              : 415 MiB (26%)
Title                                    : ac3
Language                                 : English
Service kind                             : Complete Main
Default                                  : Yes
Forced                                   : No

Menu
00:00:00.000                             : en:00:00:00.000
00:08:49.696                             : en:00:08:49.696
00:20:52.376                             : en:00:20:52.376
00:37:04.722                             : en:00:37:04.722
00:47:01.736                             : en:00:47:01.736
00:57:31.365                             : en:00:57:31.365
01:06:12.719                             : en:01:06:12.719
01:23:37.763                             : en:01:23:37.763




                                                                                                                                                                                                        


db5d9852051a14d17c5796c77af77684.zip (16.77 KB, 下载次数: 0)

回复

使用道具 举报

小黑屋|百度云资源论坛 |网站地图

本网站所有资源来自网络,如无意中侵犯了您的权益,请发邮件至 [email protected],立即清除相关链接

GMT+8, 2020-9-20 22:29 , Processed in 0.105681 second(s), 23 queries .

Powered by Discuz! X3.2

© 2001-2013 Comsenz Inc.

快速回复 返回顶部 返回列表