百度云资源论坛

 找回密码
 立即注册
搜索

丧钟:骑士与龙/丧钟 Deathstroke.Knights.and.Dragons.The.Movie.2020.720...

[复制链接]
百度云资源 发表于 2020-8-18 10:49:29 | 显示全部楼层 |阅读模式
帖子完整标题:丧钟:骑士与龙/丧钟 Deathstroke.Knights.and.Dragons.The.Movie.2020.720p.BluRay.x264-EiDER 3.12GB




◎译  名 丧钟:骑士与龙 / 丧钟
◎片  名 Deathstroke: Knights & Dragons
◎年  代 2020
◎产  地 美国
◎类  别 动画
◎语  言 英语
◎上映日期 2020-01-06(美国)
◎集  数 12
◎片  长 40分钟
◎导  演 Sung Jin Ahn
◎编  剧 J·M·德马泰 J.M. DeMatteis
◎主  演 迈克尔·切克利斯 Michael Chiklis
       萨莎·亚历山大 Sasha Alexander
       卡斯图罗·格雷拉 Castulo Guerra
       克里斯·贾伊·阿历克斯 Chris Jai Alex
       科林·萨蒙 Colin Salmon
       野路美苗 Minae Noji
       Asher Bishop
       Delbert Hunt
       Faye Mata
       Panta Mosleh


◎标  签 DC | 动画 | DC动漫 | 丧钟 | 美漫 | 漫改 | 动作 | CW

◎简  介   

  DC著名反英雄雇佣兵“丧钟”的个人动画剧《丧钟:骑士与龙》发布预告,毕竟是钟叔,画风蛮血腥残暴,爆头一时爽,“我是个雇佣兵,不是蠢货”。
  这次,丧钟将对上HIVE。迈克尔·切克利斯(《盾牌》《美国恐怖故事》《哥谭》)配音Slade Wilson。共12集,2020年第一季度登陆CW Seed。
Video
ID                                       : 1
Format                                   : AVC
Format/Info                              : Advanced Video Codec
Format settings                          : CABAC / 8 Ref Frames
Format settings, CABAC                   : Yes
Format settings, Reference frames        : 8 frames
Codec ID                                 : V_MPEG4/ISO/AVC
Duration                                 : 1 h 27 min
Bit rate                                 : 4 358 kb/s
Width                                    : 1 280 pixels
Height                                   : 720 pixels
Display aspect ratio                     : 16:9
Frame rate mode                          : Constant
Frame rate                               : 23.976 (24000/1001/189150) FPS
Color space                              : YUV
Chroma subsampling                       : 4:2:0
Bit depth                                : 8 bits
Scan type                                : Progressive
Bits/(Pixel*Frame)                       : 0.197
Stream size                              : 2.66 GiB (85%)
Writing library                          : x264 core 161 r3018 db0d417
Encoding settings                        : cabac=1 / ref=8 / deblock=1:1:1 / analyse=0x3:0x133 / me=umh / subme=9 / psy=1 / psy_rd=0.50:0.00 / mixed_ref=1 / me_range=24 / chroma_me=1 / trellis=2 / 8x8dct=1 / cqm=0 / deadzone=21,11 / fast_pskip=0 / chroma_qp_offset=-2 / threads=18 / lookahead_threads=1 / sliced_threads=0 / nr=0 / decimate=0 / interlaced=0 / bluray_compat=0 / constrained_intra=0 / bframes=3 / b_pyramid=2 / b_adapt=2 / b_bias=0 / direct=3 / weightb=1 / open_gop=0 / weightp=2 / keyint=250 / keyint_min=23 / scenecut=40 / intra_refresh=0 / rc=crf / mbtree=0 / crf=18.0 / qcomp=0.60 / qpmin=0 / qpmax=69 / qpstep=4 / ip_ratio=1.40 / pb_ratio=1.30 / aq=3:0.60
Default                                  : Yes
Forced                                   : No
Color range                              : Limited
Matrix coefficients                      : BT.709

Audio
ID                                       : 2
Format                                   : AC-3
Format/Info                              : Audio Coding 3
Commercial name                          : Dolby Digital
Codec ID                                 : A_AC3
Duration                                 : 1 h 27 min
Bit rate mode                            : Constant
Bit rate                                 : 640 kb/s
Channel(s)                               : 6 channels
Channel layout                           : L R C LFE Ls Rs
Sampling rate                            : 48.0 kHz
Frame rate                               : 31.250 FPS (1536 SPF)
Compression mode                         : Lossy
Stream size                              : 400 MiB (13%)
Title                                    : AC-3 5.1
Language                                 : English
Service kind                             : Complete Main
Default                                  : Yes
Forced                                   : No

Text #1
ID                                       : 3
Format                                   : PGS
Muxing mode                              : zlib
Codec ID                                 : S_HDMV/PGS
Codec ID/Info                            : Picture based subtitle format used on BDs/HD-DVDs
Duration                                 : 1 h 24 min
Bit rate                                 : 33.1 kb/s
Count of elements                        : 2418
Stream size                              : 20.0 MiB (1%)
Title                                    : English SDH
Language                                 : English
Default                                  : No
Forced                                   : No

Text #2
ID                                       : 4
Format                                   : PGS
Muxing mode                              : zlib
Codec ID                                 : S_HDMV/PGS
Codec ID/Info                            : Picture based subtitle format used on BDs/HD-DVDs
Duration                                 : 1 h 26 min
Bit rate                                 : 26.1 kb/s
Count of elements                        : 2004
Stream size                              : 16.2 MiB (1%)
Title                                    : French
Language                                 : French
Default                                  : No
Forced                                   : No

Text #3
ID                                       : 5
Format                                   : PGS
Muxing mode                              : zlib
Codec ID                                 : S_HDMV/PGS
Codec ID/Info                            : Picture based subtitle format used on BDs/HD-DVDs
Duration                                 : 1 h 27 min
Bit rate                                 : 28.6 kb/s
Count of elements                        : 2098
Stream size                              : 17.8 MiB (1%)
Title                                    : Spanish
Language                                 : Spanish
Default                                  : No
Forced                                   : No

Text #4
ID                                       : 6
Format                                   : PGS
Muxing mode                              : zlib
Codec ID                                 : S_HDMV/PGS
Codec ID/Info                            : Picture based subtitle format used on BDs/HD-DVDs
Duration                                 : 1 h 26 min
Bit rate                                 : 34.3 kb/s
Count of elements                        : 2440
Stream size                              : 21.2 MiB (1%)
Title                                    : German
Language                                 : German
Default                                  : No
Forced                                   : No

Text #5
ID                                       : 7
Format                                   : PGS
Muxing mode                              : zlib
Codec ID                                 : S_HDMV/PGS
Codec ID/Info                            : Picture based subtitle format used on BDs/HD-DVDs
Duration                                 : 1 h 26 min
Bit rate                                 : 28.8 kb/s
Count of elements                        : 2092
Stream size                              : 17.8 MiB (1%)
Title                                    : Swedish
Language                                 : Swedish
Default                                  : No
Forced                                   : No

Text #6
ID                                       : 8
Format                                   : PGS
Muxing mode                              : zlib
Codec ID                                 : S_HDMV/PGS
Codec ID/Info                            : Picture based subtitle format used on BDs/HD-DVDs
Duration                                 : 1 h 26 min
Bit rate                                 : 27.1 kb/s
Count of elements                        : 1946
Stream size                              : 16.7 MiB (1%)
Title                                    : Norwegian
Language                                 : Norwegian
Default                                  : No
Forced                                   : No

Text #7
ID                                       : 9
Format                                   : PGS
Muxing mode                              : zlib
Codec ID                                 : S_HDMV/PGS
Codec ID/Info                            : Picture based subtitle format used on BDs/HD-DVDs
Duration                                 : 1 h 26 min
Bit rate                                 : 26.9 kb/s
Count of elements                        : 2014
Stream size                              : 16.6 MiB (1%)
Title                                    : Danish
Language                                 : Danish
Default                                  : No
Forced                                   : No

Text #8
ID                                       : 10
Format                                   : PGS
Muxing mode                              : zlib
Codec ID                                 : S_HDMV/PGS
Codec ID/Info                            : Picture based subtitle format used on BDs/HD-DVDs
Duration                                 : 1 h 26 min
Bit rate                                 : 30.1 kb/s
Count of elements                        : 1770
Stream size                              : 18.6 MiB (1%)
Title                                    : Finnish
Language                                 : Finnish
Default                                  : No
Forced                                   : No

Menu
00:00:00.000                             : en:Chapter 01
00:09:27.650                             : en:Chapter 02
00:16:26.777                             : en:Chapter 03
00:25:22.896                             : en:Chapter 04
00:31:00.442                             : en:Chapter 05
00:38:42.070                             : en:Chapter 06
00:47:58.959                             : en:Chapter 07
00:57:38.705                             : en:Chapter 08
01:06:37.368                             : en:Chapter 09
01:15:07.294                             : en:Chapter 10
01:25:15.819                             : en:Chapter 11





a6695bbd5549d6286660cd5788a06aad.zip (32.73 KB, 下载次数: 0)

回复

使用道具 举报

小黑屋|百度云资源论坛 |网站地图

本网站所有资源来自网络,如无意中侵犯了您的权益,请发邮件至 [email protected],立即清除相关链接

GMT+8, 2020-9-19 06:45 , Processed in 0.102946 second(s), 23 queries .

Powered by Discuz! X3.2

© 2001-2013 Comsenz Inc.

快速回复 返回顶部 返回列表