百度云资源论坛

 找回密码
 立即注册
搜索

花筐 Hanagatami.2017.720p.BluRay.x264-BiPOLAR 8.56GB

[复制链接]
百度云电影 发表于 2020-8-18 10:49:29 | 显示全部楼层 |阅读模式
帖子完整标题:花筐 Hanagatami.2017.720p.BluRay.x264-BiPOLAR 8.56GB




◎译  名 花筐 / Hanagatami
◎片  名 HANAGATAMI
◎年  代 2017
◎产  地 日本
◎类  别 剧情
◎语  言 日语
◎上映日期 2017-09-16(福冈电影节) / 2017-12-16(日本)
◎IMDb评分  7.0/10 from 347 users
◎片  长 168分钟
◎导  演 大林宣彦 Nobuhiko Obayashi
◎编  剧 大林宣彦 Nobuhiko Obayashi / 檀一雄 / 桂千穂 Chiho Katsura
◎主  演 洼冢俊介 Shunsuke Kubozuka
       满岛真之介 Shin'nosuke Mitsushima
       长塚圭史 Keishi Nagatsuka
       柄本时生 Tokio Emoto
       矢作穗香 Honoka Miki
       山崎纮菜 Hirona Yamazaki
       门胁麦 Mugi Kadowaki
       常盘贵子 Takako Tokiwa
       武田铁矢 Tetsuya Takeda
       南原清隆 Kiyotaka Nanbara
       高岛政宏 Masahiro Takashima
       入江若叶 Wakaba Irie
       片冈鹤太郎 Tsurutar? Kataoka


◎标  签 日本 | 大林宣彦 | 日本电影 | 2017 | 日影 | 剧情 | 电影 | 满岛真之介

◎简  介   

  1941年春,日本佐贺县的唐津市。与姑姑江马圭子(常盘贵子 饰)一家生活在一起的17岁青年榊山俊彦(洼冢俊介 饰)迎来了新的学期。无忧无虑的青葱岁月,他每天都和好友们过着快乐的日子。这其中,拥有如希腊神话中男神一般健美身材的美少年鹈饲(满岛真之介 饰)、有如虚无僧似的吉良(长冢圭史 饰)和搞笑吵闹的阿苏(柄本时生 饰)是他最好的朋友。俊彦有一个堂妹,那是圭子姑妈的女儿美那(矢作穂香 饰)。美那患有肺病,弱不禁风,苍白的一张脸愈加楚楚动人,恰恰令处在青春期的俊彦为之倾倒。与此同时,他的身边还环绕着亚音(山崎紘菜 饰)、千岁(门胁麦 饰)等美丽女孩。少男少女们嬉笑打闹,在青春的边界线上肆意奔跑。然而当战争的钟声响起,他们那纯如白纸的青春便破碎成片,飘散空中
Video
ID                                       : 1
Format                                   : AVC
Format/Info                              : Advanced Video Codec
Format settings                          : CABAC / 9 Ref Frames
Format settings, CABAC                   : Yes
Format settings, Reference frames        : 9 frames
Codec ID                                 : V_MPEG4/ISO/AVC
Duration                                 : 2 h 49 min
Bit rate                                 : 6 582 kb/s
Width                                    : 1 280 pixels
Height                                   : 720 pixels
Display aspect ratio                     : 16:9
Frame rate mode                          : Constant
Frame rate                               : 23.976 (24000/1001/189150) FPS
Color space                              : YUV
Chroma subsampling                       : 4:2:0
Bit depth                                : 8 bits
Scan type                                : Progressive
Bits/(Pixel*Frame)                       : 0.298
Stream size                              : 7.77 GiB (91%)
Writing library                          : x264 core 161 r3018 db0d417
Encoding settings                        : cabac=1 / ref=9 / deblock=1:-3:-3 / analyse=0x3:0x133 / me=umh / subme=10 / psy=1 / psy_rd=1.00:0.15 / mixed_ref=1 / me_range=24 / chroma_me=1 / trellis=2 / 8x8dct=1 / cqm=0 / deadzone=21,11 / fast_pskip=1 / chroma_qp_offset=-3 / threads=18 / lookahead_threads=3 / sliced_threads=0 / nr=0 / decimate=1 / interlaced=0 / bluray_compat=0 / constrained_intra=0 / bframes=8 / b_pyramid=2 / b_adapt=2 / b_bias=0 / direct=3 / weightb=1 / open_gop=0 / weightp=2 / keyint=250 / keyint_min=23 / scenecut=40 / intra_refresh=0 / rc_lookahead=60 / rc=crf / mbtree=1 / crf=14.0 / qcomp=0.60 / qpmin=0 / qpmax=69 / qpstep=4 / ip_ratio=1.40 / aq=3:0.60
Language                                 : English
Default                                  : Yes
Forced                                   : No
Color range                              : Limited
Matrix coefficients                      : BT.709

Audio
ID                                       : 2
Format                                   : AC-3
Format/Info                              : Audio Coding 3
Commercial name                          : Dolby Digital
Codec ID                                 : A_AC3
Duration                                 : 2 h 49 min
Bit rate mode                            : Constant
Bit rate                                 : 640 kb/s
Channel(s)                               : 6 channels
Channel layout                           : L R C LFE Ls Rs
Sampling rate                            : 48.0 kHz
Frame rate                               : 31.250 FPS (1536 SPF)
Compression mode                         : Lossy
Stream size                              : 774 MiB (9%)
Language                                 : Japanese
Service kind                             : Complete Main
Default                                  : Yes
Forced                                   : No

Text #1
ID                                       : 3
Format                                   : UTF-8
Codec ID                                 : S_TEXT/UTF8
Codec ID/Info                            : UTF-8 Plain Text
Duration                                 : 2 h 48 min
Bit rate                                 : 35 b/s
Count of elements                        : 1757
Stream size                              : 43.2 KiB (0%)
Title                                    : English
Language                                 : English
Default                                  : Yes
Forced                                   : Yes

Text #2
ID                                       : 4
Format                                   : PGS
Muxing mode                              : zlib
Codec ID                                 : S_HDMV/PGS
Codec ID/Info                            : Picture based subtitle format used on BDs/HD-DVDs
Duration                                 : 2 h 48 min
Bit rate                                 : 20.0 kb/s
Count of elements                        : 3415
Stream size                              : 24.0 MiB (0%)
Title                                    : English
Language                                 : English
Default                                  : No
Forced                                   : No

Menu
00:00:00.000                             : en:00:00:00.000
00:08:28.133                             : en:00:08:28.133
00:15:37.645                             : en:00:15:37.645
00:20:29.770                             : en:00:20:29.770
00:28:28.749                             : en:00:28:28.749
00:36:25.642                             : en:00:36:25.642
00:41:34.325                             : en:00:41:34.325
00:47:38.230                             : en:00:47:38.230
00:58:32.384                             : en:00:58:32.384
01:03:27.178                             : en:01:03:27.178
01:10:58.796                             : en:01:10:58.796
01:17:40.447                             : en:01:17:40.447
01:21:51.156                             : en:01:21:51.156
01:35:02.655                             : en:01:35:02.655
01:40:18.971                             : en:01:40:18.971
01:46:01.564                             : en:01:46:01.564
01:50:57.234                             : en:01:50:57.234
01:56:59.721                             : en:01:56:59.721
02:05:57.383                             : en:02:05:57.383
02:12:46.709                             : en:02:12:46.709
02:19:21.645                             : en:02:19:21.645
02:28:59.013                             : en:02:28:59.013
02:35:46.254                             : en:02:35:46.254
02:42:35.454                             : en:02:42:35.454




                                                                                                                                                                                                        
         
258fe289aa40a3b71391f9eee2ca3ca0.zip (44.25 KB, 下载次数: 0)

回复

使用道具 举报

小黑屋|百度云资源论坛 |网站地图

本网站所有资源来自网络,如无意中侵犯了您的权益,请发邮件至 [email protected],立即清除相关链接

GMT+8, 2020-11-28 22:49 , Processed in 0.116554 second(s), 23 queries .

Powered by Discuz! X3.2

© 2001-2013 Comsenz Inc.

快速回复 返回顶部 返回列表