百度云资源论坛

 找回密码
 立即注册
搜索

[BD-4K] 魔法训练营/魔鬼训练营 Magic.Camp.2020.HDR.2160p.WEB.h265-WALT 11.93GB

[复制链接]
百度云资源 发表于 2020-8-18 10:18:48 | 显示全部楼层 |阅读模式
帖子完整标题:魔法训练营/魔鬼训练营 Magic.Camp.2020.HDR.2160p.WEB.h265-WALT 11.93GB




◎译  名 魔法训练营 / 魔鬼训练营
◎片  名 Magic Camp
◎年  代 2020
◎产  地 美国
◎类  别 喜剧 / 奇幻
◎语  言 英语
◎上映日期 2020-08-14(美国)
◎导  演 马克·沃特斯 Mark Waters
◎编  剧 迈卡·费兹曼-布卢 Micah Fitzerman-Blue / 诺亚·哈普斯特 Noah Harpster / 马特·斯派克 Matt Spicer / 麦克思·温克勒 Max Winkler / 丹·格雷戈尔 Dan Gregor / 道格·曼德 Doug Mand / 加布·萨克斯 Gabe Sachs / 杰夫·犹大 Jeff Judah
◎主  演 吉莉安·雅各布斯 Gillian Jacobs
       亚当·德维尼 Adam DeVine
       阿尔迪斯·霍吉 Aldis Hodge
       J·J·托塔 J.J. Totah
       罗谢尔·阿耶斯 Rochelle Aytes
       赵家玲 Rosalind Chao
       杰弗里·塔伯 Jeffrey Tambor
       丽贝卡·梅茨 Rebecca Metz
       朗尼·查维斯 Lonnie Chavis
       迈克尔·希区柯克 Michael Hitchcock
       戴斯蒙·詹 Desmond Chiam
       查尔斯·钟 Charlet Chung
       科尔·桑德 Cole Sand
       克里斯托·乔伊·布朗 Krystal Joy Brown
       Isabella Crovetti-Cramp
       Izabella Alvarez
       Madison Bontempo
       Justin Willman


◎简  介   

  故事讲述德维尼饰演的银行家事业失败、情场失意,他试图通过神奇的“魔法训练营”回到自己的少年时期,找回自信,重塑人生。
Video
ID                                       : 1
Format                                   : HEVC
Format/Info                              : High Efficiency Video Coding
Codec ID                                 : V_MPEGH/ISO/HEVC
Duration                                 : 1 h 37 min
Bit rate                                 : 16.5 Mb/s
Width                                    : 3 840 pixels
Height                                   : 2 160 pixels
Display aspect ratio                     : 16:9
Frame rate mode                          : Constant
Frame rate                               : 23.976 (24000/1001/189150) FPS
Color space                              : YUV
Chroma subsampling                       : 4:2:0
Bit depth                                : 10 bits
Bits/(Pixel*Frame)                       : 0.083
Stream size                              : 11.3 GiB (96%)
Language                                 : English
Default                                  : Yes
Forced                                   : No
Color range                              : Limited
Color primaries                          : BT.2020
Transfer characteristics                 : PQ
Matrix coefficients                      : BT.2020 non-constant

Audio
ID                                       : 2
Format                                   : E-AC-3 JOC
Format/Info                              : Enhanced AC-3 with Joint Object Coding
Commercial name                          : Dolby Digital Plus with Dolby Atmos
Codec ID                                 : A_EAC3
Duration                                 : 1 h 37 min
Bit rate mode                            : Constant
Bit rate                                 : 768 kb/s
Channel(s)                               : 6 channels
Channel layout                           : L R C LFE Ls Rs
Sampling rate                            : 48.0 kHz
Frame rate                               : 31.250 FPS (1536 SPF)
Compression mode                         : Lossy
Stream size                              : 538 MiB (4%)
Language                                 : English
Service kind                             : Complete Main
Default                                  : Yes
Forced                                   : No
Complexity index                         : 14
Number of dynamic objects                : 4
Bed channel count                        : 10 channels
Bed channel configuration                : L R C LFE Ls Rs Lb Rb Tsl Tsr

Text #1
ID                                       : 3
Format                                   : UTF-8
Codec ID                                 : S_TEXT/UTF8
Codec ID/Info                            : UTF-8 Plain Text
Duration                                 : 1 h 34 min
Bit rate                                 : 76 b/s
Count of elements                        : 1519
Stream size                              : 53.2 KiB (0%)
Title                                    : Dansk
Language                                 : Danish
Default                                  : No
Forced                                   : No

Text #2
ID                                       : 4
Format                                   : UTF-8
Codec ID                                 : S_TEXT/UTF8
Codec ID/Info                            : UTF-8 Plain Text
Duration                                 : 1 h 34 min
Bit rate                                 : 75 b/s
Count of elements                        : 1477
Stream size                              : 52.5 KiB (0%)
Title                                    : Deutsch
Language                                 : German
Default                                  : No
Forced                                   : No

Text #3
ID                                       : 5
Format                                   : UTF-8
Codec ID                                 : S_TEXT/UTF8
Codec ID/Info                            : UTF-8 Plain Text
Duration                                 : 1 h 35 min
Bit rate                                 : 87 b/s
Count of elements                        : 1701
Stream size                              : 61.7 KiB (0%)
Title                                    : English (SDH)
Language                                 : English
Default                                  : No
Forced                                   : No

Text #4
ID                                       : 6
Format                                   : UTF-8
Codec ID                                 : S_TEXT/UTF8
Codec ID/Info                            : UTF-8 Plain Text
Duration                                 : 1 h 34 min
Bit rate                                 : 83 b/s
Count of elements                        : 1503
Stream size                              : 58.2 KiB (0%)
Title                                    : Espa?ol
Language                                 : Spanish
Default                                  : No
Forced                                   : No

Text #5
ID                                       : 7
Format                                   : UTF-8
Codec ID                                 : S_TEXT/UTF8
Codec ID/Info                            : UTF-8 Plain Text
Duration                                 : 1 h 34 min
Bit rate                                 : 75 b/s
Count of elements                        : 1514
Stream size                              : 52.1 KiB (0%)
Title                                    : Espa?ol (Latinoamericano)
Language                                 : Spanish
Default                                  : No
Forced                                   : No

Text #6
ID                                       : 8
Format                                   : UTF-8
Codec ID                                 : S_TEXT/UTF8
Codec ID/Info                            : UTF-8 Plain Text
Duration                                 : 1 h 31 min
Bit rate                                 : 65 b/s
Count of elements                        : 1514
Stream size                              : 43.7 KiB (0%)
Title                                    : Suomi
Language                                 : Finnish
Default                                  : No
Forced                                   : No

Text #7
ID                                       : 9
Format                                   : UTF-8
Codec ID                                 : S_TEXT/UTF8
Codec ID/Info                            : UTF-8 Plain Text
Duration                                 : 1 h 34 min
Bit rate                                 : 74 b/s
Count of elements                        : 1496
Stream size                              : 51.9 KiB (0%)
Title                                    : Fran?ais
Language                                 : French
Default                                  : No
Forced                                   : No

Text #8
ID                                       : 10
Format                                   : UTF-8
Codec ID                                 : S_TEXT/UTF8
Codec ID/Info                            : UTF-8 Plain Text
Duration                                 : 1 h 34 min
Bit rate                                 : 82 b/s
Count of elements                        : 1511
Stream size                              : 57.4 KiB (0%)
Title                                    : Italiano
Language                                 : Italian
Default                                  : No
Forced                                   : No

Text #9
ID                                       : 11
Format                                   : UTF-8
Codec ID                                 : S_TEXT/UTF8
Codec ID/Info                            : UTF-8 Plain Text
Duration                                 : 1 h 34 min
Bit rate                                 : 60 b/s
Count of elements                        : 1281
Stream size                              : 41.9 KiB (0%)
Title                                    : Nederlands
Language                                 : Dutch
Default                                  : No
Forced                                   : No

Text #10
ID                                       : 12
Format                                   : UTF-8
Codec ID                                 : S_TEXT/UTF8
Codec ID/Info                            : UTF-8 Plain Text
Duration                                 : 1 h 34 min
Bit rate                                 : 66 b/s
Count of elements                        : 1518
Stream size                              : 46.0 KiB (0%)
Title                                    : Norsk
Language                                 : Norwegian
Default                                  : No
Forced                                   : No

Text #11
ID                                       : 13
Format                                   : UTF-8
Codec ID                                 : S_TEXT/UTF8
Codec ID/Info                            : UTF-8 Plain Text
Duration                                 : 1 h 37 min
Bit rate                                 : 70 b/s
Count of elements                        : 1507
Stream size                              : 50.4 KiB (0%)
Title                                    : Polski
Language                                 : Polish
Default                                  : No
Forced                                   : No

Text #12
ID                                       : 14
Format                                   : UTF-8
Codec ID                                 : S_TEXT/UTF8
Codec ID/Info                            : UTF-8 Plain Text
Duration                                 : 1 h 34 min
Bit rate                                 : 74 b/s
Count of elements                        : 1485
Stream size                              : 51.5 KiB (0%)
Title                                    : Português (Brasil)
Language                                 : Portuguese
Default                                  : No
Forced                                   : No

Text #13
ID                                       : 15
Format                                   : UTF-8
Codec ID                                 : S_TEXT/UTF8
Codec ID/Info                            : UTF-8 Plain Text
Duration                                 : 1 h 37 min
Bit rate                                 : 81 b/s
Count of elements                        : 1515
Stream size                              : 57.8 KiB (0%)
Title                                    : Português
Language                                 : Portuguese
Default                                  : No
Forced                                   : No

Text #14
ID                                       : 16
Format                                   : UTF-8
Codec ID                                 : S_TEXT/UTF8
Codec ID/Info                            : UTF-8 Plain Text
Duration                                 : 1 h 34 min
Bit rate                                 : 78 b/s
Count of elements                        : 1519
Stream size                              : 54.7 KiB (0%)
Title                                    : Svenska
Language                                 : Swedish
Default                                  : No
Forced                                   : No





63eb9fbe10b1b679789352c4607aa651.zip (61.13 KB, 下载次数: 0)

回复

使用道具 举报

小黑屋|百度云资源论坛 |网站地图

本网站所有资源来自网络,如无意中侵犯了您的权益,请发邮件至 [email protected],立即清除相关链接

GMT+8, 2020-9-20 16:04 , Processed in 0.112367 second(s), 23 queries .

Powered by Discuz! X3.2

© 2001-2013 Comsenz Inc.

快速回复 返回顶部 返回列表