百度云资源论坛

 找回密码
 立即注册
搜索

谎言与偷窃/Estafadores(西班牙) Lying.and.Stealing.2019.1080p.BluR...

[复制链接]
百度云电影 发表于 2020-8-18 08:12:05 | 显示全部楼层 |阅读模式
帖子完整标题:谎言与偷窃/Estafadores(西班牙) Lying.and.Stealing.2019.1080p.BluRay.x264-PSYCHD 6.57GB




◎译  名 谎言与偷窃 / Estafadores(西班牙) / Lying and Stealing(加拿大) / Posljednja plja?ka(克罗地亚) / Vagys melagiai(立陶宛) / Zlodziej i oszustka(波兰) / Искусство обмана(俄罗斯) / 你是騙子我是賊(中国台湾)
◎片  名 Lying and Stealing
◎年  代 2019
◎产  地 美国
◎类  别 犯罪
◎语  言 英语
◎上映日期 2019-07-12(美国)
◎IMDb评分  5.3/10 from 3667 users
◎片  长 100分钟
◎导  演 马特·阿赛尔顿 Matt Aselton
◎编  剧 马特·阿赛尔顿 Matt Aselton / Adam Nagata
◎主  演 艾米丽·拉塔科斯基 Emily Ratajkowski
       提奥·詹姆斯 Theo James
       弗雷德·迈拉麦德 Fred Melamed
       艾邦·摩斯-巴克拉赫 Ebon Moss-Bachrach
       小伊塞亚·维特洛克 Isiah Whitlock Jr.
       伊万·汉德勒 Evan Handler
       约翰·盖汀斯 John Gatins


◎标  签 犯罪 | 美国 | 2019 | 剧情 | 喜剧 | 美国电影 | 艾米丽·拉塔科斯基 | 泡沫

◎简  介   

  提奥·詹姆斯、艾米丽·拉塔科夫斯基(《消失的爱人》)主演犯罪新片《谎言与偷窃》(Lying and Stealing)首曝剧照,近日刚于洛杉矶开拍。Matt Aselton(《不可思议》)执导,讲述一个年轻、圆滑的贼Ivan,他的专长是盗窃洛杉矶上层集团的高端艺术品,事业发展很顺利,但他想退出。Elyse是一名很有前途的女演员,她的密室里堆有成山的建筑骨架和大量债务。两位机灵的骗子决定合作,参与一项大胆的抢劫案。
  弗雷德·迈拉麦德(《严肃的男人》《炸天女郎》)、Ebon Moss-Bachrach(《惩罚者》《末日孤舰》)、Isiah Whitlock Jr.(《迷雾》《副总统》)、伊万·汉德勒(《加州靡情》《欲望都市》)、约翰·盖汀斯(《铁甲钢拳》《极品飞车》)等参演,Michael Costigan(《断背山》《美国黑帮》)、Naomi Despres(《一级重罪》《杀死信使》)、Christopher Tricarico(《高堡奇人》《五月夏日》)、Mohamed AlRafi(《毋庸置疑》)共同制片。
Video
ID                                       : 1
Format                                   : AVC
Format settings                          : CABAC / 5 Ref Frames
Format settings, CABAC                   : Yes
Format settings, Reference frames        : 5 frames
Codec ID                                 : V_MPEG4/ISO/AVC
Duration                                 : 1 h 40 min
Bit rate                                 : 8 723 kb/s
Width                                    : 1 920 pixels
Height                                   : 800 pixels
Display aspect ratio                     : 2.40:1
Frame rate mode                          : Constant
Frame rate                               : 23.976 (24000/1001/189150) FPS
Color space                              : YUV
Chroma subsampling                       : 4:2:0
Bit depth                                : 8 bits
Scan type                                : Progressive
Bits/(Pixel*Frame)                       : 0.237
Stream size                              : 5.98 GiB (91%)
Writing library                          : x264 core 158 r2984 3759fcb
Encoding settings                        : cabac=1 / ref=5 / deblock=1:-3:-3 / analyse=0x3:0x113 / me=umh / subme=8 / psy=1 / psy_rd=1.00:0.00 / mixed_ref=1 / me_range=32 / chroma_me=1 / trellis=2 / 8x8dct=1 / cqm=0 / deadzone=21,11 / fast_pskip=1 / chroma_qp_offset=-2 / threads=25 / lookahead_threads=4 / sliced_threads=0 / nr=0 / decimate=1 / interlaced=0 / bluray_compat=0 / constrained_intra=0 / bframes=3 / b_pyramid=2 / b_adapt=2 / b_bias=0 / direct=3 / weightb=1 / open_gop=0 / weightp=2 / keyint=240 / keyint_min=24 / scenecut=40 / intra_refresh=0 / rc_lookahead=50 / rc=2pass / mbtree=1 / bitrate=8723 / ratetol=1.0 / qcomp=0.60 / qpmin=0 / qpmax=69 / qpstep=4 / cplxblur=20.0 / qblur=0.5 / ip_ratio=1.40 / aq=3:0.80
Default                                  : Yes
Forced                                   : No
Statistics Tags Issue                    : no_variable_data 1970-01-01 00:00:00 / no_variable_data 2010-02-22 21:41:29
FromStats_BitRate                        : 8720767
FromStats_Duration                       : 01:40:14.759000000
FromStats_FrameCount                     : 144210
FromStats_StreamSize                     : 6556664683

Audio
ID                                       : 2
Format                                   : AC-3
Format/Info                              : Audio Coding 3
Commercial name                          : Dolby Digital
Codec ID                                 : A_AC3
Duration                                 : 1 h 40 min
Bit rate mode                            : Constant
Bit rate                                 : 640 kb/s
Channel(s)                               : 6 channels
Channel layout                           : L R C LFE Ls Rs
Sampling rate                            : 48.0 kHz
Frame rate                               : 31.250 FPS (1536 SPF)
Compression mode                         : Lossy
Stream size                              : 459 MiB (7%)
Language                                 : English
Service kind                             : Complete Main
Default                                  : Yes
Forced                                   : No
Statistics Tags Issue                    : no_variable_data 1970-01-01 00:00:00 / no_variable_data 2010-02-22 21:41:29
FromStats_BitRate                        : 640000
FromStats_Duration                       : 01:40:14.560000000
FromStats_FrameCount                     : 187955
FromStats_StreamSize                     : 481164800

Text #1
ID                                       : 3
Format                                   : UTF-8
Codec ID                                 : S_TEXT/UTF8
Codec ID/Info                            : UTF-8 Plain Text
Language                                 : English
Default                                  : No
Forced                                   : No
Statistics Tags Issue                    : no_variable_data 1970-01-01 00:00:00 / no_variable_data 2010-02-22 21:41:29
FromStats_BitRate                        : 62
FromStats_Duration                       : 01:36:48.345000000
FromStats_FrameCount                     : 1639
FromStats_StreamSize                     : 45441

Text #2
ID                                       : 4
Format                                   : UTF-8
Codec ID                                 : S_TEXT/UTF8
Codec ID/Info                            : UTF-8 Plain Text
Title                                    : SDH
Language                                 : English
Default                                  : No
Forced                                   : No
Statistics Tags Issue                    : no_variable_data 1970-01-01 00:00:00 / no_variable_data 2010-02-22 21:41:29
FromStats_BitRate                        : 64
FromStats_Duration                       : 01:38:09.800000000
FromStats_FrameCount                     : 1741
FromStats_StreamSize                     : 47162

Menu
00:00:00.000                             : en:Chapter 01
00:14:24.822                             : en:Chapter 02
00:25:44.001                             : en:Chapter 03
00:38:43.947                             : en:Chapter 04
00:50:55.886                             : en:Chapter 05
01:03:47.615                             : en:Chapter 06
01:20:59.146                             : en:Chapter 07
01:38:09.884                             : en:Chapter 08





968c4dee4434b61fed4955d4c5c7b015.zip (34.43 KB, 下载次数: 0)

回复

使用道具 举报

小黑屋|百度云资源论坛 |网站地图

本网站所有资源来自网络,如无意中侵犯了您的权益,请发邮件至 [email protected],立即清除相关链接

GMT+8, 2020-9-24 23:52 , Processed in 0.099774 second(s), 23 queries .

Powered by Discuz! X3.2

© 2001-2013 Comsenz Inc.

快速回复 返回顶部 返回列表