百度云资源论坛

 找回密码
 立即注册
搜索

失忆十分钟/火线猎杀令 10.Minutes.Gone.2019.1080p.BluRay.x264-PSYCHD...

[复制链接]
百度云电影 发表于 2020-8-18 08:12:05 | 显示全部楼层 |阅读模式
帖子完整标题:失忆十分钟/火线猎杀令 10.Minutes.Gone.2019.1080p.BluRay.x264-PSYCHD 5.48GB




◎译  名 失忆十分钟 / 火线猎杀令(台) / 终极失忆
◎片  名 10 Minutes Gone
◎年  代 2019
◎产  地 美国
◎类  别 惊悚 / 犯罪
◎语  言 英语
◎上映日期 2019-09-27(美国)
◎IMDb评分  3.6/10 from 2118 users
◎片  长 89分钟
◎导  演 布莱恩·A·米勒 Brian A Miller
◎编  剧 Kelvin Mao / Jeff Jingle
◎主  演 迈克尔·切克利斯 Michael Chiklis
       布鲁斯·威利斯 Bruce Willis
       梅多·威廉姆斯 Meadow Williams
       凯尔·施密德 Kyle Schmid
       特夏斯·巴特尔 Texas Battle
       丽迪雅·赫尔 Lydia Hull
       斯温·特梅尔 Swen Temmel
       John D. Hickman
       Sergio Rizzuto
       Geoff Reeves
       泰勒·乔恩·奥尔森 Tyler Jon Olson
       罗曼·米蒂齐扬 Roman Mitichyan
       Franco Delgado
       Martin Blencowe
       Leslee Emmett
       Megan Neuringer
       拉拉·肯特 Lala Kent
       塔尼娅 Tanya Mityushina
       乔·吉尔希翁 Joe Gelchion
       David Danello


◎标  签 犯罪 | 美国 | 动作 | 2019 | 布鲁斯·威利斯 | 悬疑 | 抢劫 | 惊悚

◎简  介   

  布鲁斯·威利斯宣布主演犯罪惊悚片《失忆十分钟》。主角由于一宗意外失控的抢劫案而丧失了部分记忆而,为了回忆起自己到底遭受了什么以及幕后真凶,他不得不寻找有关线索来将遗失在犯罪现场的记忆片段慢慢拼凑起来。
Video
ID                                       : 1
Format                                   : AVC
Format/Info                              : Advanced Video Codec
Format settings                          : CABAC / 4 Ref Frames
Format settings, CABAC                   : Yes
Format settings, Reference frames        : 4 frames
Codec ID                                 : V_MPEG4/ISO/AVC
Duration                                 : 1 h 28 min
Bit rate                                 : 8 189 kb/s
Width                                    : 1 920 pixels
Height                                   : 1 040 pixels
Display aspect ratio                     : 1.85:1
Frame rate mode                          : Constant
Frame rate                               : 23.976 (24000/1001/189150) FPS
Color space                              : YUV
Chroma subsampling                       : 4:2:0
Bit depth                                : 8 bits
Scan type                                : Progressive
Bits/(Pixel*Frame)                       : 0.171
Stream size                              : 4.96 GiB (91%)
Writing library                          : x264 core 158 r2984 3759fcb
Encoding settings                        : cabac=1 / ref=4 / deblock=1:-3:-3 / analyse=0x3:0x113 / me=umh / subme=8 / psy=1 / psy_rd=1.00:0.00 / mixed_ref=1 / me_range=32 / chroma_me=1 / trellis=2 / 8x8dct=1 / cqm=0 / deadzone=21,11 / fast_pskip=1 / chroma_qp_offset=-2 / threads=32 / lookahead_threads=5 / sliced_threads=0 / nr=0 / decimate=1 / interlaced=0 / bluray_compat=0 / constrained_intra=0 / bframes=3 / b_pyramid=2 / b_adapt=2 / b_bias=0 / direct=3 / weightb=1 / open_gop=0 / weightp=2 / keyint=240 / keyint_min=24 / scenecut=40 / intra_refresh=0 / rc_lookahead=50 / rc=2pass / mbtree=1 / bitrate=8189 / ratetol=1.0 / qcomp=0.60 / qpmin=0 / qpmax=69 / qpstep=4 / cplxblur=20.0 / qblur=0.5 / ip_ratio=1.40 / aq=3:0.80
Default                                  : Yes
Forced                                   : No
Statistics Tags Issue                    : no_variable_data 1970-01-01 00:00:00 / no_variable_data 2010-02-22 21:41:29
FromStats_BitRate                        : 8185345
FromStats_Duration                       : 01:28:34.893000000
FromStats_FrameCount                     : 127430
FromStats_StreamSize                     : 5438029297

Audio
ID                                       : 2
Format                                   : AC-3
Format/Info                              : Audio Coding 3
Commercial name                          : Dolby Digital
Codec ID                                 : A_AC3
Duration                                 : 1 h 28 min
Bit rate mode                            : Constant
Bit rate                                 : 640 kb/s
Channel(s)                               : 6 channels
Channel layout                           : L R C LFE Ls Rs
Sampling rate                            : 48.0 kHz
Frame rate                               : 31.250 FPS (1536 SPF)
Compression mode                         : Lossy
Stream size                              : 405 MiB (7%)
Language                                 : English
Service kind                             : Complete Main
Default                                  : Yes
Forced                                   : No
Statistics Tags Issue                    : no_variable_data 1970-01-01 00:00:00 / no_variable_data 2010-02-22 21:41:29
FromStats_BitRate                        : 640000
FromStats_Duration                       : 01:28:34.688000000
FromStats_FrameCount                     : 166084
FromStats_StreamSize                     : 425175040

Text #1
ID                                       : 3
Format                                   : UTF-8
Codec ID                                 : S_TEXT/UTF8
Codec ID/Info                            : UTF-8 Plain Text
Language                                 : English
Default                                  : No
Forced                                   : No
Statistics Tags Issue                    : no_variable_data 1970-01-01 00:00:00 / no_variable_data 2010-02-22 21:41:29
FromStats_BitRate                        : 58
FromStats_Duration                       : 01:25:50.103000000
FromStats_FrameCount                     : 1195
FromStats_StreamSize                     : 37713

Text #2
ID                                       : 4
Format                                   : UTF-8
Codec ID                                 : S_TEXT/UTF8
Codec ID/Info                            : UTF-8 Plain Text
Title                                    : SDH
Language                                 : English
Default                                  : No
Forced                                   : No
Statistics Tags Issue                    : no_variable_data 1970-01-01 00:00:00 / no_variable_data 2010-02-22 21:41:29
FromStats_BitRate                        : 61
FromStats_Duration                       : 01:25:50.103000000
FromStats_FrameCount                     : 1299
FromStats_StreamSize                     : 39644

Menu
00:00:00.000                             : en:Chapter 01
00:13:45.074                             : en:Chapter 02
00:27:33.360                             : en:Chapter 03
00:39:20.108                             : en:Chapter 04
00:50:34.949                             : en:Chapter 05
01:03:28.013                             : en:Chapter 06
01:15:51.422                             : en:Chapter 07
01:24:29.815                             : en:Chapter 08






57bd0d080ecec60945445dc681f34317.zip (28.91 KB, 下载次数: 0)

回复

使用道具 举报

小黑屋|百度云资源论坛 |网站地图

本网站所有资源来自网络,如无意中侵犯了您的权益,请发邮件至 [email protected],立即清除相关链接

GMT+8, 2020-9-18 18:44 , Processed in 0.104348 second(s), 23 queries .

Powered by Discuz! X3.2

© 2001-2013 Comsenz Inc.

快速回复 返回顶部 返回列表