百度云资源论坛

 找回密码
 立即注册
搜索

森林恶鬼 The.Wretched.2019.1080p.BluRay.x264-WUTANG 11.12GB

[复制链接]
百度云电影 发表于 2020-8-18 08:12:05 | 显示全部楼层 |阅读模式
帖子完整标题:森林恶鬼 The.Wretched.2019.1080p.BluRay.x264-WUTANG 11.12GB




◎译  名 森林恶鬼 / Hag / 凶邻(港) / 皮行者
◎片  名 The Wretched
◎年  代 2019
◎产  地 美国
◎类  别 恐怖
◎语  言 英语
◎上映日期 2019-07-19(加拿大奇幻电影节) / 2020-05-01(美国)
◎IMDb评分  5.8/10 from 5301 users
◎片  长 95分钟
◎导  演 布雷特·皮尔斯 Brett Pierce / 德鲁·T·皮尔斯 Drew T. Pierce
◎编  剧 布雷特·皮尔斯 Brett Pierce / 德鲁·T·皮尔斯 Drew T. Pierce
◎主  演 约翰-保罗·霍华德 John-Paul Howard
       佩珀·柯达 Piper Curda
       贾米森·琼斯 Jamison Jones
       阿兹·泰思费 Azie Tesfai
       扎拉·马勒 Zarah Mahler
       凯文·比格利 Kevin Bigley
       Gabriela Quezada Bloomgarden
       理查德·伊利斯 Richard Ellis


◎标  签 恐怖 | 惊悚 | 美国 | 悬疑 | 血腥 | 美国电影 | 食人 | 2020

◎简  介   

  一个挑衅的十几岁的男孩,与父母即将离婚的挣扎,面对一个千岁的女巫,谁是生活在皮肤下,并冒充隔壁的女人。
Video
ID                                       : 1
Format                                   : AVC
Format/Info                              : Advanced Video Codec
Format settings                          : CABAC / 5 Ref Frames
Format settings, CABAC                   : Yes
Format settings, Reference frames        : 5 frames
Codec ID                                 : V_MPEG4/ISO/AVC
Duration                                 : 1 h 35 min
Bit rate                                 : 14.4 Mb/s
Width                                    : 1 920 pixels
Height                                   : 804 pixels
Display aspect ratio                     : 2.40:1
Frame rate mode                          : Constant
Frame rate                               : 23.976 (24000/1001/189150) FPS
Color space                              : YUV
Chroma subsampling                       : 4:2:0
Bit depth                                : 8 bits
Scan type                                : Progressive
Bits/(Pixel*Frame)                       : 0.388
Stream size                              : 9.58 GiB (86%)
Writing library                          : x264 core 161 r3018 db0d417
Encoding settings                        : cabac=1 / ref=5 / deblock=1:-3:-3 / analyse=0x3:0x133 / me=umh / subme=9 / psy=1 / psy_rd=1.00:0.00 / mixed_ref=1 / me_range=32 / chroma_me=1 / trellis=2 / 8x8dct=1 / cqm=0 / deadzone=21,11 / fast_pskip=0 / chroma_qp_offset=-2 / threads=24 / lookahead_threads=4 / sliced_threads=0 / nr=0 / decimate=1 / interlaced=0 / bluray_compat=0 / constrained_intra=0 / bframes=8 / b_pyramid=2 / b_adapt=2 / b_bias=0 / direct=3 / weightb=1 / open_gop=0 / weightp=2 / keyint=250 / keyint_min=23 / scenecut=40 / intra_refresh=0 / rc=crf / mbtree=0 / crf=16.7 / qcomp=0.60 / qpmin=0 / qpmax=69 / qpstep=4 / ip_ratio=1.40 / pb_ratio=1.30 / aq=3:0.78
Default                                  : Yes
Forced                                   : No
Color range                              : Limited
Matrix coefficients                      : BT.709

Audio #1
ID                                       : 2
Format                                   : DTS XLL
Format/Info                              : Digital Theater Systems
Commercial name                          : DTS-HD Master Audio
Codec ID                                 : A_DTS
Duration                                 : 1 h 38 min
Bit rate mode                            : Variable
Bit rate                                 : 2 010 kb/s
Channel(s)                               : 6 channels
Channel layout                           : C L R Ls Rs LFE
Sampling rate                            : 48.0 kHz
Frame rate                               : 93.750 FPS (512 SPF)
Bit depth                                : 16 bits
Compression mode                         : Lossless
Stream size                              : 1.39 GiB (12%)
Title                                    : English
Language                                 : English
Default                                  : Yes
Forced                                   : No

Audio #2
ID                                       : 3
Format                                   : AAC LC
Format/Info                              : Advanced Audio Codec Low Complexity
Codec ID                                 : A_AAC-2
Duration                                 : 1 h 38 min
Bit rate                                 : 81.8 kb/s
Channel(s)                               : 2 channels
Channel layout                           : L R
Sampling rate                            : 48.0 kHz
Frame rate                               : 46.875 FPS (1024 SPF)
Compression mode                         : Lossy
Delay relative to video                  : 9 ms
Stream size                              : 57.9 MiB (1%)
Title                                    : Commentary with the Pierce brothers
Language                                 : English
Default                                  : No
Forced                                   : No

Audio #3
ID                                       : 4
Format                                   : AAC LC
Format/Info                              : Advanced Audio Codec Low Complexity
Codec ID                                 : A_AAC-2
Duration                                 : 1 h 38 min
Bit rate                                 : 116 kb/s
Channel(s)                               : 2 channels
Channel layout                           : L R
Sampling rate                            : 48.0 kHz
Frame rate                               : 46.875 FPS (1024 SPF)
Compression mode                         : Lossy
Delay relative to video                  : 9 ms
Stream size                              : 81.7 MiB (1%)
Title                                    : Commentary with composer Devin Burrows
Language                                 : English
Default                                  : No
Forced                                   : No

Text #1
ID                                       : 5
ID in the original source medium         : 4608 (0x1200)
Format                                   : PGS
Muxing mode                              : zlib
Codec ID                                 : S_HDMV/PGS
Codec ID/Info                            : Picture based subtitle format used on BDs/HD-DVDs
Duration                                 : 1 h 33 min
Bit rate                                 : 29.9 kb/s
Count of elements                        : 2368
Stream size                              : 20.0 MiB (0%)
Language                                 : English
Default                                  : No
Forced                                   : No
Original source medium                   : Blu-ray

Text #2
ID                                       : 6
ID in the original source medium         : 4609 (0x1201)
Format                                   : PGS
Muxing mode                              : zlib
Codec ID                                 : S_HDMV/PGS
Codec ID/Info                            : Picture based subtitle format used on BDs/HD-DVDs
Duration                                 : 1 h 29 min
Bit rate                                 : 23.3 kb/s
Count of elements                        : 1678
Stream size                              : 14.9 MiB (0%)
Language                                 : Spanish
Default                                  : No
Forced                                   : No
Original source medium                   : Blu-ray

Menu
00:00:00.000                             : en:Chapter 01
00:05:38.463                             : en:Chapter 02
00:14:55.812                             : en:Chapter 03
00:21:28.078                             : en:Chapter 04
00:30:23.613                             : en:Chapter 05
00:37:31.583                             : en:Chapter 06
00:45:46.327                             : en:Chapter 07
00:53:09.436                             : en:Chapter 08
01:00:41.847                             : en:Chapter 09
01:08:16.634                             : en:Chapter 10
01:19:18.128                             : en:Chapter 11
01:31:01.665                             : en:Chapter 12





f38ee6269c906636029dd4f2b9db9795.zip (57.08 KB, 下载次数: 0)

回复

使用道具 举报

小黑屋|百度云资源论坛 |网站地图

本网站所有资源来自网络,如无意中侵犯了您的权益,请发邮件至 [email protected],立即清除相关链接

GMT+8, 2020-11-24 13:49 , Processed in 0.100080 second(s), 23 queries .

Powered by Discuz! X3.2

© 2001-2013 Comsenz Inc.

快速回复 返回顶部 返回列表