百度云资源论坛

 找回密码
 立即注册
搜索

如何培养一个女孩/青春期少女的养成方法 How.to.Build.a.Girl.2...

[复制链接]
百度云电影 发表于 2020-8-18 08:12:05 | 显示全部楼层 |阅读模式
帖子完整标题:如何培养一个女孩/青春期少女的养成方法 How.to.Build.a.Girl.2019.1080p.BluRay.x264-YOL0W 11.95GB




◎译  名 如何培养一个女孩 / 青春期少女的养成方法
◎片  名 How to Build a Girl
◎年  代 2019
◎产  地 英国
◎类  别 喜剧
◎语  言 英语
◎上映日期 2019-09-07(多伦多电影节) / 2020-05-08(英国)
◎IMDb评分  5.8/10 from 1585 users
◎片  长 102分钟
◎导  演 科奇·吉尔佐 Coky Giedroyc
◎编  剧 凯特琳·莫兰 Caitlin Moran / 约翰·尼文 John Niven
◎主  演 比妮·费尔德斯坦 Beanie Feldstein
       阿尔菲·艾伦 Alfie Allen
       艾玛·汤普森 Emma Thompson
       帕迪·康斯戴恩 Paddy Considine
       克里斯·奥多德 Chris O'Dowd
       露茜·彭奇 Lucy Punch
       贾米拉·贾米尔 Jameela Jamil
       莎朗·豪根 Sharon Horgan
       弗兰克·迪兰 Frank Dillane
       爱德华·布卢梅尔 Edward Bluemel
       莎拉·索蕾玛尼 Sarah Solemani
       苏·帕金斯 Sue Perkins
       乔安娜·斯坎伦 Joanna Scanlan
       塔格·墨菲 Tadhg Murphy
       劳利·基纳斯顿 Laurie Kynaston
       露丝·霍洛克斯 Ruth Horrocks
       鲍比·斯科菲尔德 Bobby Schofield
       阿琳泽·科纳 Arinzé Kene
       维克托里娅·菲斯 Viktorija Faith
       保罗·布莱克维尔 Paul Blackwell
       齐吉·希思 Ziggy Heath
       阿什克·阿赫塔尔 Asheq Akhtar
       贾格·帕特尔 Jag Patel


◎标  签 英国 | 女性 | 英国电影 | 2019 | 艾玛·汤普森 | 剧情 | 弗兰克·迪兰 | 文学作品改编

◎简  介   

  1990年代的北英格兰小镇,一个少女想当音乐记者,而她朴素害羞的风格跟乐队、演出格格不入。但某天,她摇身一变成为“朵丽·王尔德第二”,以一个彩色头发、华丽张扬的新锐写手形象打进了那个圈子。但新生活也带给了她五味杂陈的新感悟……
Video
ID                                       : 1
Format                                   : AVC
Format/Info                              : Advanced Video Codec
Format settings                          : CABAC / 4 Ref Frames
Format settings, CABAC                   : Yes
Format settings, Reference frames        : 4 frames
Codec ID                                 : V_MPEG4/ISO/AVC
Duration                                 : 1 h 43 min
Bit rate                                 : 14.3 Mb/s
Width                                    : 1 920 pixels
Height                                   : 1 036 pixels
Display aspect ratio                     : 1.85:1
Frame rate mode                          : Constant
Frame rate                               : 24.000 FPS
Color space                              : YUV
Chroma subsampling                       : 4:2:0
Bit depth                                : 8 bits
Scan type                                : Progressive
Bits/(Pixel*Frame)                       : 0.299
Stream size                              : 10.4 GiB (87%)
Writing library                          : x264 core 161 r3018 db0d417
Encoding settings                        : cabac=1 / ref=4 / deblock=1:-3:-3 / analyse=0x3:0x133 / me=umh / subme=9 / psy=1 / psy_rd=1.00:0.00 / mixed_ref=1 / me_range=32 / chroma_me=1 / trellis=2 / 8x8dct=1 / cqm=0 / deadzone=21,11 / fast_pskip=0 / chroma_qp_offset=-2 / threads=24 / lookahead_threads=4 / sliced_threads=0 / nr=0 / decimate=1 / interlaced=0 / bluray_compat=0 / constrained_intra=0 / bframes=8 / b_pyramid=2 / b_adapt=2 / b_bias=0 / direct=3 / weightb=1 / open_gop=0 / weightp=2 / keyint=250 / keyint_min=24 / scenecut=40 / intra_refresh=0 / rc=crf / mbtree=0 / crf=17.0 / qcomp=0.60 / qpmin=0 / qpmax=69 / qpstep=4 / ip_ratio=1.40 / pb_ratio=1.30 / aq=3:0.90
Default                                  : Yes
Forced                                   : No
Color range                              : Limited
Matrix coefficients                      : BT.709

Audio
ID                                       : 2
Format                                   : DTS XLL
Format/Info                              : Digital Theater Systems
Commercial name                          : DTS-HD Master Audio
Codec ID                                 : A_DTS
Duration                                 : 1 h 49 min
Bit rate mode                            : Variable
Bit rate                                 : 2 036 kb/s
Channel(s)                               : 6 channels
Channel layout                           : C L R Ls Rs LFE
Sampling rate                            : 48.0 kHz
Frame rate                               : 93.750 FPS (512 SPF)
Bit depth                                : 16 bits
Compression mode                         : Lossless
Stream size                              : 1.56 GiB (13%)
Title                                    : English
Language                                 : English
Default                                  : Yes
Forced                                   : No

Text #1
ID                                       : 3
ID in the original source medium         : 4608 (0x1200)
Format                                   : PGS
Muxing mode                              : zlib
Codec ID                                 : S_HDMV/PGS
Codec ID/Info                            : Picture based subtitle format used on BDs/HD-DVDs
Duration                                 : 1 h 43 min
Bit rate                                 : 54.0 kb/s
Count of elements                        : 3780
Stream size                              : 40.0 MiB (0%)
Language                                 : English
Default                                  : No
Forced                                   : No
Original source medium                   : Blu-ray

Text #2
ID                                       : 4
ID in the original source medium         : 4609 (0x1201)
Format                                   : PGS
Muxing mode                              : zlib
Codec ID                                 : S_HDMV/PGS
Codec ID/Info                            : Picture based subtitle format used on BDs/HD-DVDs
Duration                                 : 1 h 38 min
Bit rate                                 : 49.3 kb/s
Count of elements                        : 2950
Stream size                              : 34.8 MiB (0%)
Language                                 : Spanish
Default                                  : No
Forced                                   : No
Original source medium                   : Blu-ray

Menu
00:00:00.000                             : en:Chapter 01
00:09:17.250                             : en:Chapter 02
00:19:29.833                             : en:Chapter 03
00:25:53.917                             : en:Chapter 04
00:37:06.833                             : en:Chapter 05
00:45:08.875                             : en:Chapter 06
00:54:13.792                             : en:Chapter 07
01:04:05.292                             : en:Chapter 08
01:11:38.208                             : en:Chapter 09
01:21:55.750                             : en:Chapter 10
01:29:50.500                             : en:Chapter 11
01:39:32.583                             : en:Chapter 12


fb377c02408c49ef74410a887c5c927e.zip (61.25 KB, 下载次数: 0)

回复

使用道具 举报

小黑屋|百度云资源论坛 |网站地图

本网站所有资源来自网络,如无意中侵犯了您的权益,请发邮件至 [email protected],立即清除相关链接

GMT+8, 2020-9-20 16:03 , Processed in 0.110165 second(s), 23 queries .

Powered by Discuz! X3.2

© 2001-2013 Comsenz Inc.

快速回复 返回顶部 返回列表