百度云资源论坛

 找回密码
 立即注册
搜索

叛徒 The.Traitor.2019.1080p.BluRay.x264-USURY 12.05GB

[复制链接]
百度云电影 发表于 2020-8-18 08:12:05 | 显示全部楼层 |阅读模式
帖子完整标题:叛徒 The.Traitor.2019.1080p.BluRay.x264-USURY 12.05GB




◎译  名 叛徒 / The Traitor / Tommaso Buscetta / 黑金叛徒(台)
◎片  名 Il traditore
◎年  代 2019
◎产  地 意大利 / 法国 / 巴西 / 德国
◎类  别 剧情 / 传记 / 犯罪
◎语  言 意大利语
◎上映日期 2019-05-23(意大利/戛纳电影节)
◎IMDb评分  7.1/10 from 6362 users
◎片  长 153分钟
◎导  演 马可·贝洛基奥 Marco Bellocchio
◎编  剧 马可·贝洛基奥 Marco Bellocchio / 瓦利亚·桑泰拉 Valia Santella / 卢多维卡·兰波尔迪 Ludovica Rampoldi / 弗朗西斯·皮克罗 Francesco Piccolo
◎主  演 皮耶尔弗兰切斯科·法维诺 Pierfrancesco Favino
       马丽娅·费尔南达·康基多 Maria Fernanda Candido
       路易吉·洛·卡肖 Luigi Lo Cascio
       福斯托·鲁索·阿莱西 Fausto Russo Alesi
       尼诺·波尔齐奥 Nino Porzio
       Alessio Praticò
       Gabriele Arena
       Fabrizio Ferracane
       Jacopo Garfagnoli
       Patrick Simons
       Marco Gambino
       Calì Nicola
       Goffredo Maria Bruno
       Massimiliano Ubaldi
       Marilina Marino
       Nunzia Lo Presti
       Maria Amato


◎标  签 意大利 | 黑帮 | 犯罪 | 2019 | 意大利电影 | 剧情 | 戛纳/主竞赛单元 | 戛纳

◎简  介   

  本片根据意大利真实事件改编而成。上世纪80年代初期,黑帮首脑多玛索·布西达从意大利移居巴西,然而远在意大利的自己的哥哥与孩子却相继被黑帮团伙杀害。为了惩治凶手,他开始与意大利警方合作,在两方的不断努力下,多玛索·布西达不仅抓住了杀害自己亲人的幕后黑手,并将意大利盘根错节的黑帮团伙连根拔起……

◎获奖情况  

  第72届戛纳电影节(2019)
  主竞赛单元 金棕榈奖(提名) 马可·贝洛基奥

  第32届欧洲电影奖(2019)
  最佳影片(提名)
  最佳导演(提名) 马可·贝洛基奥
  最佳男主角(提名) 皮耶尔弗兰切斯科·法维诺
  最佳编剧(提名) 瓦利亚·桑泰拉 / 马可·贝洛基奥 / 卢多维卡·兰波尔迪 / 弗朗西斯·皮克罗

  第45届法国凯撒电影奖(2020)
  最佳外语片(提名)

  第65届意大利大卫奖(2020)
  最佳影片
  最佳导演 马可·贝洛基奥
  最佳原创剧本 瓦利亚·桑泰拉 / 马可·贝洛基奥 / 卢多维卡·兰波尔迪 / 弗朗西斯·皮克罗
  最佳男主角 皮耶尔弗兰切斯科·法维诺
  最佳女配角(提名) Maria Amato
  最佳男配角 路易吉·洛·卡肖
  最佳男配角(提名) Fabrizio Ferracane
  最佳摄影(提名)
  最佳音乐(提名)
  最佳美术设计(提名)
  最佳服装设计(提名)
  最佳化妆(提名)
  最佳剪辑
  最佳音效(提名)
  最佳视觉效果(提名)
Video
ID                                       : 1
Format                                   : AVC
Format settings                          : CABAC / 4 Ref Frames
Format settings, CABAC                   : Yes
Format settings, Reference frames        : 4 frames
Codec ID                                 : V_MPEG4/ISO/AVC
Duration                                 : 2 h 31 min
Bit rate                                 : 9 842 kb/s
Width                                    : 1 920 pixels
Height                                   : 1 040 pixels
Display aspect ratio                     : 1.85:1
Frame rate mode                          : Constant
Frame rate                               : 23.976 (24000/1001/189150) FPS
Color space                              : YUV
Chroma subsampling                       : 4:2:0
Bit depth                                : 8 bits
Scan type                                : Progressive
Bits/(Pixel*Frame)                       : 0.206
Stream size                              : 10.4 GiB (87%)
Writing library                          : x264 core 157 r2969 d4099dd
Encoding settings                        : cabac=1 / ref=4 / deblock=1:-3:-3 / analyse=0x3:0x133 / me=umh / subme=9 / psy=1 / psy_rd=1.00:0.00 / mixed_ref=1 / me_range=16 / chroma_me=1 / trellis=2 / 8x8dct=1 / cqm=0 / deadzone=21,11 / fast_pskip=0 / chroma_qp_offset=-2 / threads=18 / lookahead_threads=1 / sliced_threads=0 / nr=0 / decimate=1 / interlaced=0 / bluray_compat=0 / constrained_intra=0 / bframes=3 / b_pyramid=2 / b_adapt=1 / b_bias=0 / direct=3 / weightb=1 / open_gop=0 / weightp=2 / keyint=240 / keyint_min=24 / scenecut=40 / intra_refresh=0 / rc_lookahead=50 / rc=2pass / mbtree=1 / bitrate=9842 / ratetol=1.0 / qcomp=0.60 / qpmin=0 / qpmax=69 / qpstep=4 / cplxblur=20.0 / qblur=0.5 / ip_ratio=1.40 / aq=1:1.00
Language                                 : English
Default                                  : Yes
Forced                                   : No

Audio
ID                                       : 2
Format                                   : DTS
Format/Info                              : Digital Theater Systems
Codec ID                                 : A_DTS
Duration                                 : 2 h 31 min
Bit rate mode                            : Constant
Bit rate                                 : 1 509 kb/s
Channel(s)                               : 6 channels
Channel layout                           : C L R Ls Rs LFE
Sampling rate                            : 48.0 kHz
Frame rate                               : 93.750 FPS (512 SPF)
Bit depth                                : 24 bits
Compression mode                         : Lossy
Stream size                              : 1.60 GiB (13%)
Language                                 : Italian
Default                                  : Yes
Forced                                   : No

Text
ID                                       : 3
Format                                   : UTF-8
Codec ID                                 : S_TEXT/UTF8
Codec ID/Info                            : UTF-8 Plain Text
Duration                                 : 2 h 21 min
Bit rate                                 : 48 b/s
Count of elements                        : 1512
Stream size                              : 50.8 KiB (0%)
Title                                    : English
Language                                 : English
Default                                  : Yes
Forced                                   : Yes

Menu
00:00:00.000                             : en:00:00:00.000
00:11:01.578                             : en:00:11:01.578
00:25:06.046                             : en:00:25:06.046
00:40:19.792                             : en:00:40:19.792
01:11:11.934                             : en:01:11:11.934
01:18:45.346                             : en:01:18:45.346
01:29:46.590                             : en:01:29:46.590
01:36:46.551                             : en:01:36:46.551
01:47:30.944                             : en:01:47:30.944
01:52:13.393                             : en:01:52:13.393
02:06:50.061                             : en:02:06:50.061
02:15:47.222                             : en:02:15:47.222






7f87e947b1a698924040dedaef11192a.zip (61.79 KB, 下载次数: 0)

回复

使用道具 举报

小黑屋|百度云资源论坛 |网站地图

本网站所有资源来自网络,如无意中侵犯了您的权益,请发邮件至 [email protected],立即清除相关链接

GMT+8, 2020-9-30 13:41 , Processed in 0.101311 second(s), 26 queries .

Powered by Discuz! X3.2

© 2001-2013 Comsenz Inc.

快速回复 返回顶部 返回列表