百度云资源论坛

 找回密码
 立即注册
搜索

二凤 Furie.2019.1080p.BluRay.x264-USURY 7.65GB

[复制链接]
百度云资源 发表于 2020-8-18 08:12:05 | 显示全部楼层 |阅读模式
帖子完整标题:二凤 Furie.2019.1080p.BluRay.x264-USURY 7.65GB




◎译  名 二凤 / Furie / 怒拳妈妈(港) / 怒火(台) / 愤怒的母亲 / 海芳
◎片  名 Hai Ph??ng
◎年  代 2019
◎产  地 越南
◎类  别 剧情 / 动作
◎语  言 越南语
◎上映日期 2019-02-22(越南) / 2019-09-20(中国大陆)
◎IMDb评分  6.3/10 from 3389 users
◎片  长 98分钟
◎导  演 黎文杰 Le-Van Kiet
◎主  演 吴青芸 Thanh Van Ngo
       范英科 Pham Anh Khoa
       璇蜜 Tuy?n M?p
       陈青华
       黎平 Lê Bình
       石金龙 Thach Kim Long
       可银 Kha Ngan


◎标  签 越南 | 动作 | 功夫 | 犯罪 | 女性 | 2019 | 剧情 | 暴力

◎简  介   

  黑道大姐二凤(吴青芸 饰)金盆洗手后与女儿阿梅相依为命,二凤因加入黑道被逐出家门,她本人也疏于表达对家人的感情。一天,阿梅被歹徒掳走。二凤在与流氓阿直(范英科 饰)交手后得知女儿去向。在警探阿良(潘清然 饰)等人的帮助下,二凤开始了夺回女儿的冒险。
Video
ID                                       : 1
Format                                   : AVC
Format/Info                              : Advanced Video Codec
Format settings                          : CABAC / 5 Ref Frames
Format settings, CABAC                   : Yes
Format settings, Reference frames        : 5 frames
Codec ID                                 : V_MPEG4/ISO/AVC
Duration                                 : 1 h 37 min
Bit rate                                 : 8 238 kb/s
Width                                    : 1 920 pixels
Height                                   : 808 pixels
Display aspect ratio                     : 2.40:1
Frame rate mode                          : Constant
Frame rate                               : 24.000 FPS
Color space                              : YUV
Chroma subsampling                       : 4:2:0
Bit depth                                : 8 bits
Scan type                                : Progressive
Bits/(Pixel*Frame)                       : 0.221
Stream size                              : 5.60 GiB (73%)
Writing library                          : x264 core 157 r2969 d4099dd
Encoding settings                        : cabac=1 / ref=5 / deblock=1:-3:-3 / analyse=0x3:0x133 / me=umh / subme=9 / psy=1 / psy_rd=1.00:0.00 / mixed_ref=1 / me_range=16 / chroma_me=1 / trellis=2 / 8x8dct=1 / cqm=0 / deadzone=21,11 / fast_pskip=0 / chroma_qp_offset=-2 / threads=18 / lookahead_threads=1 / sliced_threads=0 / nr=0 / decimate=1 / interlaced=0 / bluray_compat=0 / constrained_intra=0 / bframes=3 / b_pyramid=2 / b_adapt=1 / b_bias=0 / direct=3 / weightb=1 / open_gop=0 / weightp=2 / keyint=240 / keyint_min=24 / scenecut=40 / intra_refresh=0 / rc_lookahead=50 / rc=2pass / mbtree=1 / bitrate=8238 / ratetol=1.0 / qcomp=0.60 / qpmin=0 / qpmax=69 / qpstep=4 / cplxblur=20.0 / qblur=0.5 / ip_ratio=1.40 / aq=1:1.00
Language                                 : English
Default                                  : Yes
Forced                                   : No

Audio #1
ID                                       : 2
Format                                   : DTS
Format/Info                              : Digital Theater Systems
Codec ID                                 : A_DTS
Duration                                 : 1 h 37 min
Bit rate mode                            : Constant
Bit rate                                 : 1 509 kb/s
Channel(s)                               : 6 channels
Channel layout                           : C L R Ls Rs LFE
Sampling rate                            : 48.0 kHz
Frame rate                               : 93.750 FPS (512 SPF)
Bit depth                                : 24 bits
Compression mode                         : Lossy
Stream size                              : 1.03 GiB (13%)
Language                                 : Vietnamese
Default                                  : Yes
Forced                                   : No

Audio #2
ID                                       : 3
Format                                   : DTS
Format/Info                              : Digital Theater Systems
Codec ID                                 : A_DTS
Duration                                 : 1 h 37 min
Bit rate mode                            : Constant
Bit rate                                 : 1 509 kb/s
Channel(s)                               : 6 channels
Channel layout                           : C L R Ls Rs LFE
Sampling rate                            : 48.0 kHz
Frame rate                               : 93.750 FPS (512 SPF)
Bit depth                                : 24 bits
Compression mode                         : Lossy
Stream size                              : 1.03 GiB (13%)
Language                                 : English
Default                                  : No
Forced                                   : No

Text
ID                                       : 4
Format                                   : UTF-8
Codec ID                                 : S_TEXT/UTF8
Codec ID/Info                            : UTF-8 Plain Text
Duration                                 : 1 h 30 min
Bit rate                                 : 40 b/s
Count of elements                        : 1034
Stream size                              : 27.0 KiB (0%)
Title                                    : English
Language                                 : English
Default                                  : Yes
Forced                                   : Yes

Menu
00:00:00.000                             : en:00:00:00.000
00:07:58.083                             : en:00:07:58.083
00:18:37.750                             : en:00:18:37.750
00:25:33.375                             : en:00:25:33.375
00:34:46.750                             : en:00:34:46.750
00:45:30.500                             : en:00:45:30.500
00:54:38.792                             : en:00:54:38.792
01:02:59.417                             : en:01:02:59.417
01:09:26.125                             : en:01:09:26.125
01:13:43.542                             : en:01:13:43.542
01:23:34.208                             : en:01:23:34.208
01:32:52.708                             : en:01:32:52.708





3858b8d40f1f04deb7d3c47521f901b0.zip (39.74 KB, 下载次数: 0)

回复

使用道具 举报

小黑屋|百度云资源论坛 |网站地图

本网站所有资源来自网络,如无意中侵犯了您的权益,请发邮件至 [email protected],立即清除相关链接

GMT+8, 2020-9-25 21:09 , Processed in 0.097655 second(s), 23 queries .

Powered by Discuz! X3.2

© 2001-2013 Comsenz Inc.

快速回复 返回顶部 返回列表