百度云资源论坛

 找回密码
 立即注册
搜索

萌宠流浪记/小麻煩當家 Trouble.2019.1080p.BluRay.x264-PSYCHD 6.57GB

[复制链接]
百度云资源 发表于 2020-8-18 08:12:05 | 显示全部楼层 |阅读模式
帖子完整标题:萌宠流浪记/小麻煩當家 Trouble.2019.1080p.BluRay.x264-PSYCHD 6.57GB




◎译  名 萌宠流浪记 / 小麻煩當家(台)
◎片  名 Trouble
◎年  代 2019
◎产  地 加拿大 / 美国 / 开曼群岛
◎类  别 喜剧 / 动画 / 家庭
◎语  言 英语
◎上映日期 2019-08-08(泰国)
◎IMDb评分  6.1/10 from 973 users
◎片  长 87分钟
◎导  演 Kevin Johnson
◎编  剧 Jordan Katz / Judah Miller / 罗布·缪尔 Rob Muir / John Paul Murphy / Jessica Weiss / 哈兰德·威廉姆斯 Harland Williams
◎主  演 Big Sean
       帕梅拉·阿德龙 Pamela Adlon
       露西·海尔 Lucy Hale
       玛丽莎·贾里特·威诺克 Marissa Jaret Winokur
       维尔摩·瓦尔德拉玛 Wilmer Valderrama
       乔尔·麦克哈尔 Joel McHale
       塞斯·罗林斯 Seth Rollins
       小达蒙·韦恩斯 Damon Wayans Jr.
       奥利维亚·霍尔特 Olivia Holt
       卡洛斯·佩纳 Carlos Pena
       哈兰德·威廉姆斯 Harland Williams
       康拉德·弗农 Conrad Vernon
       迪·布拉雷·贝克尔 Dee Bradley Baker
       凯文·张伯伦 Kevin Chamberlin
       吉姆·卡明斯 Jim Cummings
       曼尼·斯特里茨 Manny Streetz
       杰森·玛耶兹 Jason Mraz
       西泽·米兰 Cesar Millan
       史努比狗狗 Snoop Dogg
       贝蒂·怀特 Betty White
       麦丽·弗拉纳甘 Maile Flanagan
       凯特·希金斯 Kate Higgins
       米歇尔·拉夫 Michelle Ruff
       Keith Silverstein
       弗雷德·塔特西奥 Fred Tatasciore
       柯克·桑顿 Kirk Thornton


◎标  签 动画 | 美国 | 家庭、冒险、搞笑 | 2019 | 喜剧 | 加拿大 | 开曼群岛 | 家庭

◎简  介   

  Trouble是一只被宠坏了的狗狗,平时生活在一个大豪宅中,这一切都是其他狗狗做梦都难以得到的,直到富有的女主人去世后,Trouble阴错阳差离开豪宅变成了一只流浪狗,面对险恶的世界,他不仅需要寻找一个新家,还要设法摆脱已故主人贪婪的亲戚的绑架和阴谋。
Video
ID                                       : 1
Format                                   : AVC
Format/Info                              : Advanced Video Codec
Format settings                          : CABAC / 4 Ref Frames
Format settings, CABAC                   : Yes
Format settings, Reference frames        : 4 frames
Codec ID                                 : V_MPEG4/ISO/AVC
Duration                                 : 1 h 27 min
Bit rate                                 : 9 196 kb/s
Width                                    : 1 920 pixels
Height                                   : 1 040 pixels
Display aspect ratio                     : 1.85:1
Frame rate mode                          : Constant
Frame rate                               : 24.000 FPS
Color space                              : YUV
Chroma subsampling                       : 4:2:0
Bit depth                                : 8 bits
Scan type                                : Progressive
Bits/(Pixel*Frame)                       : 0.192
Stream size                              : 5.50 GiB (84%)
Writing library                          : x264 core 159 r2991 1771b55
Encoding settings                        : cabac=1 / ref=4 / deblock=1:-3:-3 / analyse=0x3:0x113 / me=umh / subme=8 / psy=1 / psy_rd=1.00:0.00 / mixed_ref=1 / me_range=32 / chroma_me=1 / trellis=2 / 8x8dct=1 / cqm=0 / deadzone=21,11 / fast_pskip=1 / chroma_qp_offset=-2 / threads=32 / lookahead_threads=5 / sliced_threads=0 / nr=0 / decimate=1 / interlaced=0 / bluray_compat=0 / constrained_intra=0 / bframes=3 / b_pyramid=2 / b_adapt=2 / b_bias=0 / direct=3 / weightb=1 / open_gop=0 / weightp=2 / keyint=240 / keyint_min=24 / scenecut=40 / intra_refresh=0 / rc_lookahead=50 / rc=2pass / mbtree=1 / bitrate=9196 / ratetol=1.0 / qcomp=0.60 / qpmin=0 / qpmax=69 / qpstep=4 / cplxblur=20.0 / qblur=0.5 / ip_ratio=1.40 / aq=3:0.80
Default                                  : Yes
Forced                                   : No
Statistics Tags Issue                    : no_variable_data 1970-01-01 00:00:00 / no_variable_data 2010-02-22 21:41:29
FromStats_BitRate                        : 9194342
FromStats_Duration                       : 01:27:40.750000000
FromStats_FrameCount                     : 126258
FromStats_StreamSize                     : 6046141853

Audio
ID                                       : 2
Format                                   : DTS
Format/Info                              : Digital Theater Systems
Codec ID                                 : A_DTS
Duration                                 : 1 h 27 min
Bit rate mode                            : Constant
Bit rate                                 : 1 509 kb/s
Channel(s)                               : 6 channels
Channel layout                           : C L R Ls Rs LFE
Sampling rate                            : 48.0 kHz
Frame rate                               : 93.750 FPS (512 SPF)
Bit depth                                : 24 bits
Compression mode                         : Lossy
Stream size                              : 946 MiB (14%)
Language                                 : English
Default                                  : Yes
Forced                                   : No
Statistics Tags Issue                    : no_variable_data 1970-01-01 00:00:00 / no_variable_data 2010-02-22 21:41:29
FromStats_BitRate                        : 1508999
FromStats_Duration                       : 01:27:40.715000000
FromStats_FrameCount                     : 493192
FromStats_StreamSize                     : 992302304

Menu
00:00:00.000                             : en:Chapter 01
00:12:11.250                             : en:Chapter 02
00:23:03.292                             : en:Chapter 03
00:30:35.542                             : en:Chapter 04
00:43:59.792                             : en:Chapter 05
00:54:18.958                             : en:Chapter 06
01:06:18.000                             : en:Chapter 07
01:18:34.583                             : en:Chapter 08




                                                                                                                                                                                                        


b5489cb5685c77a19478cb87e150f923.zip (34.3 KB, 下载次数: 0)

回复

使用道具 举报

小黑屋|百度云资源论坛 |网站地图

本网站所有资源来自网络,如无意中侵犯了您的权益,请发邮件至 [email protected],立即清除相关链接

GMT+8, 2020-10-1 21:00 , Processed in 0.108361 second(s), 23 queries .

Powered by Discuz! X3.2

© 2001-2013 Comsenz Inc.

快速回复 返回顶部 返回列表