百度云资源论坛

 找回密码
 立即注册
搜索

[4K-原盘] 魔发精灵2 Trolls.World.Tour.2020.2160p.BluRay.REMUX.HEVC.DTS-HD.MA.TrueHD...

[复制链接]
百度云电影 发表于 2020-8-16 07:42:41 | 显示全部楼层 |阅读模式


◎译  名 魔发精灵2 / Trolls 2 / 丑娃2 / 巨魔2 / 巨魔娃娃2 / 魔发精灵2:世界巡演 / 魔发精灵唱游世界(台) / 魔发精灵:世界之旅 / 魔发精灵:唱游大世界(港)
◎片  名 Trolls World Tour
◎年  代 2020
◎产  地 美国
◎类  别 动画 / 歌舞 / 奇幻 / 冒险
◎语  言 英语
◎上映日期 2020-04-10(美国)
◎IMDb评分  6.1/10 from 8463 users
◎片  长 90分钟
◎导  演 沃尔特·道恩 Walt Dohrn / 戴维·P·史密斯 David P. Smith
◎编  剧 乔纳森·阿贝尔 Jonathan Aibel / 格伦·伯杰 Glenn Berger / 玛雅·福布斯 Maya Forbes / 华莱士·沃洛达斯基 Wallace Wolodarsky / Elizabeth Tippet / 托马斯·丹姆 Thomas Dam
◎主  演 安娜·肯德里克 Anna Kendrick
       贾斯汀·汀布莱克 Justin Timberlake
       蕾切尔·布鲁姆 Rachel Bloom
       詹姆斯·柯登 James Corden
       罗恩·芬奇斯 Ron Funches
       凯莉·克拉克森 Kelly Clarkson
       山姆·洛克威尔 Sam Rockwell
       詹米·多南 Jamie Dornan
       乔治·克林顿 George Clinton
       玛丽·布莱姬 Mary J. Blige
       基南·汤普森 Kenan Thompson
       昆瑙·内亚 Kunal Nayyar
       卡洛琳·耶尔特 Caroline Hjelt
       艾诺·贾沃 Aino Jawo
       弗卢拉·博格 Flula Borg
       伊丝特尔·迪恩 Ester Dean
       奥兹·奥斯朋 Ozzy Osbourne
       安东尼·拉莫斯 Anthony Ramos
       卡兰·索尼 Karan Soni
       查琳·易 Charlyne Yi
       朴秀荣 Joy
       姜涩琪 SeulGi
       佐伊·丹斯切尔 Zooey Deschanel
       克里斯托夫·梅兹-普莱瑟 Christopher Mintz-Plasse
       凯文·迈克尔·理查德森 Kevin Michael Richardson
       沃尔特·道恩 Walt Dohrn
       戴维·P·史密斯 David P. Smith
       达明·乔伊·伦道夫 Da'Vine Joy Randolph
       贝琪·索达罗 Betsy Sodaro
       Marcella Lentz-Pope
       Anderson .Paak
       J Balvin


◎标  签 动画 | 魔发精灵 | 梦工厂 | 动画电影 | 美国 | 歌舞 | 2020 | 美国电影

◎简  介   

  讲述Poppy和Branch有了一个惊人的发现——除了他们之外,还有其他的魔发精灵世界,各部落的明显差异导致了巨大的冲突。当一种神秘的邪恶力量让所有的精灵世界都面临危险时,Poppy和Branch以及朋友们将踏上一段史诗般的探寻旅程,在长期不和的各精灵族群中创造和谐氛围,让大家团结起来对抗某种厄运。
  这部片的音乐风格将更加多样化,流行音乐、乡村音乐、嘻哈音乐、硬摇滚、骤停打击乐、电子舞曲等都有。
Video #1
ID                                       : 1
ID in the original source medium         : 4113 (0x1011)
Format                                   : HEVC
Format/Info                              : High Efficiency Video Coding
HDR format                               : SMPTE ST 2094 App 4, Version 1, HDR10+ Profile B compatible
Codec ID                                 : V_MPEGH/ISO/HEVC
Duration                                 : 1 h 30 min
Bit rate                                 : 41.2 Mb/s
Width                                    : 3 840 pixels
Height                                   : 2 160 pixels
Display aspect ratio                     : 16:9
Frame rate mode                          : Constant
Frame rate                               : 23.976 (24000/1001/189150) FPS
Color space                              : YUV
Chroma subsampling                       : 4:2:0 (Type 2)
Bit depth                                : 10 bits
Bits/(Pixel*Frame)                       : 0.207
Stream size                              : 26.1 GiB (72%)
Title                                    : Trolls.World.Tour.2020.2160p.BluRay.REMUX.HEVC.DTS-HD.MA.TrueHD.7.1.Atmos-FGT
Language                                 : English
Default                                  : Yes
Forced                                   : No
Color range                              : Limited
Color primaries                          : BT.2020
Transfer characteristics                 : PQ
Matrix coefficients                      : BT.2020 non-constant
Mastering display color primaries        : Display P3
Mastering display luminance              : min: 0.0010 cd/m2, max: 1000 cd/m2
Maximum Content Light Level              : 1000 cd/m2
Maximum Frame-Average Light Level        : 462 cd/m2
Original source medium                   : Blu-ray


Video #2
ID                                       : 2
ID in the original source medium         : 4117 (0x1015)
Format                                   : HEVC
Format/Info                              : High Efficiency Video Coding
Format profile                           : Main 1@High
HDR format                               : SMPTE ST 2086, HDR10 compatible
Codec ID                                 : V_MPEGH/ISO/HEVC
Duration                                 : 1 h 30 min
Bit rate                                 : 6 154 kb/s
Width                                    : 1 920 pixels
Height                                   : 1 080 pixels
Display aspect ratio                     : 16:9
Frame rate mode                          : Constant
Frame rate                               : 23.976 (24000/1001/189150) FPS
Color space                              : YUV
Chroma subsampling                       : 4:2:0 (Type 2)
Bit depth                                : 10 bits
Bits/(Pixel*Frame)                       : 0.124
Stream size                              : 3.90 GiB (11%)
Title                                    : Trolls.World.Tour.2020.2160p.BluRay.REMUX.HEVC.DTS-HD.MA.TrueHD.7.1.Atmos-FGT
Language                                 : English
Default                                  : No
Forced                                   : No
Color range                              : Limited
Color primaries                          : BT.2020
Transfer characteristics                 : PQ
Matrix coefficients                      : BT.2020 non-constant
Mastering display color primaries        : Display P3
Mastering display luminance              : min: 0.0010 cd/m2, max: 1000 cd/m2
Original source medium                   : Blu-ray

Audio #1
ID                                       : 3
ID in the original source medium         : 4352 (0x1100)
Format                                   : MLP FBA 16-ch
Format/Info                              : Meridian Lossless Packing FBA with 16-channel presentation
Commercial name                          : Dolby TrueHD with Dolby Atmos
Codec ID                                 : A_TRUEHD
Duration                                 : 1 h 30 min
Bit rate mode                            : Variable
Bit rate                                 : 3 173 kb/s
Maximum bit rate                         : 5 049 kb/s
Channel(s)                               : 8 channels
Channel layout                           : L R C LFE Ls Rs Lb Rb
Sampling rate                            : 48.0 kHz
Frame rate                               : 1 200.000 FPS (40 SPF)
Compression mode                         : Lossless
Stream size                              : 2.01 GiB (6%)
Title                                    : Trolls.World.Tour.2020.2160p.BluRay.REMUX.HEVC.DTS-HD.MA.TrueHD.7.1.Atmos-FGT
Language                                 : English
Default                                  : Yes
Forced                                   : No
Original source medium                   : Blu-ray
Number of dynamic objects                : 11
Bed channel count                        : 1 channel
Bed channel configuration                : LFE

Audio #2
ID                                       : 4
Format                                   : DTS XLL
Format/Info                              : Digital Theater Systems
Commercial name                          : DTS-HD Master Audio
Codec ID                                 : A_DTS
Duration                                 : 1 h 30 min
Bit rate mode                            : Variable
Bit rate                                 : 4 148 kb/s
Channel(s)                               : 8 channels
Channel layout                           : C L R LFE Lb Rb Lss Rss
Sampling rate                            : 48.0 kHz
Frame rate                               : 93.750 FPS (512 SPF)
Bit depth                                : 24 bits
Compression mode                         : Lossless
Stream size                              : 2.63 GiB (7%)
Title                                    : Trolls.World.Tour.2020.2160p.BluRay.REMUX.HEVC.DTS-HD.MA.TrueHD.7.1.Atmos-FGT
Language                                 : English
Default                                  : No
Forced                                   : No

Audio #3
ID                                       : 5
ID in the original source medium         : 4352 (0x1100)
Format                                   : AC-3
Format/Info                              : Audio Coding 3
Commercial name                          : Dolby Digital
Codec ID                                 : A_AC3
Duration                                 : 1 h 30 min
Bit rate mode                            : Constant
Bit rate                                 : 448 kb/s
Channel(s)                               : 6 channels
Channel layout                           : L R C LFE Ls Rs
Sampling rate                            : 48.0 kHz
Frame rate                               : 31.250 FPS (1536 SPF)
Bit depth                                : 16 bits
Compression mode                         : Lossy
Stream size                              : 291 MiB (1%)
Title                                    : Trolls.World.Tour.2020.2160p.BluRay.REMUX.HEVC.DTS-HD.MA.TrueHD.7.1.Atmos-FGT
Language                                 : English
Service kind                             : Complete Main
Default                                  : No
Forced                                   : No
Original source medium                   : Blu-ray

Audio #4
ID                                       : 6
Format                                   : E-AC-3
Format/Info                              : Enhanced AC-3
Commercial name                          : Dolby Digital Plus
Format profile                           : Blu-ray Disc
Codec ID                                 : A_EAC3
Duration                                 : 1 h 30 min
Bit rate mode                            : Constant
Bit rate                                 : 768 kb/s
Channel(s)                               : 8 channels
Channel layout                           : L R C LFE Ls Rs Lb Rb
Sampling rate                            : 48.0 kHz
Frame rate                               : 31.250 FPS (1536 SPF)
Compression mode                         : Lossy
Stream size                              : 498 MiB (1%)
Title                                    : Trolls.World.Tour.2020.2160p.BluRay.REMUX.HEVC.DTS-HD.MA.TrueHD.7.1.Atmos-FGT
Language                                 : Spanish
Service kind                             : Complete Main
Default                                  : No
Forced                                   : No

Audio #5
ID                                       : 7
ID in the original source medium         : 4353 (0x1101)
Format                                   : AC-3
Format/Info                              : Audio Coding 3
Commercial name                          : Dolby Digital
Codec ID                                 : A_AC3
Duration                                 : 1 h 30 min
Bit rate mode                            : Constant
Bit rate                                 : 448 kb/s
Channel(s)                               : 6 channels
Channel layout                           : L R C LFE Ls Rs
Sampling rate                            : 48.0 kHz
Frame rate                               : 31.250 FPS (1536 SPF)
Bit depth                                : 16 bits
Compression mode                         : Lossy
Stream size                              : 291 MiB (1%)
Title                                    : Trolls.World.Tour.2020.2160p.BluRay.REMUX.HEVC.DTS-HD.MA.TrueHD.7.1.Atmos-FGT
Language                                 : Spanish
Service kind                             : Complete Main
Default                                  : No
Forced                                   : No
Original source medium                   : Blu-ray

Audio #6
ID                                       : 8
ID in the original source medium         : 4354 (0x1102)
Format                                   : AC-3
Format/Info                              : Audio Coding 3
Commercial name                          : Dolby Digital
Codec ID                                 : A_AC3
Duration                                 : 1 h 30 min
Bit rate mode                            : Constant
Bit rate                                 : 640 kb/s
Channel(s)                               : 6 channels
Channel layout                           : L R C LFE Ls Rs
Sampling rate                            : 48.0 kHz
Frame rate                               : 31.250 FPS (1536 SPF)
Bit depth                                : 16 bits
Compression mode                         : Lossy
Stream size                              : 415 MiB (1%)
Title                                    : Trolls.World.Tour.2020.2160p.BluRay.REMUX.HEVC.DTS-HD.MA.TrueHD.7.1.Atmos-FGT
Language                                 : French
Service kind                             : Complete Main
Default                                  : No
Forced                                   : No
Original source medium                   : Blu-ray

Audio #7
ID                                       : 9
ID in the original source medium         : 4355 (0x1103)
Format                                   : AC-3
Format/Info                              : Audio Coding 3
Commercial name                          : Dolby Digital
Codec ID                                 : A_AC3
Duration                                 : 1 h 30 min
Bit rate mode                            : Constant
Bit rate                                 : 192 kb/s
Channel(s)                               : 2 channels
Channel layout                           : L R
Sampling rate                            : 48.0 kHz
Frame rate                               : 31.250 FPS (1536 SPF)
Bit depth                                : 16 bits
Compression mode                         : Lossy
Stream size                              : 125 MiB (0%)
Title                                    : Trolls.World.Tour.2020.2160p.BluRay.REMUX.HEVC.DTS-HD.MA.TrueHD.7.1.Atmos-FGT
Language                                 : English
Service kind                             : Complete Main
Default                                  : No
Forced                                   : No
Original source medium                   : Blu-ray

Text #1
ID                                       : 10
Format                                   : UTF-8
Codec ID                                 : S_TEXT/UTF8
Codec ID/Info                            : UTF-8 Plain Text
Duration                                 : 1 h 23 min
Bit rate                                 : 70 b/s
Count of elements                        : 1391
Stream size                              : 43.4 KiB (0%)
Title                                    : English-SRT
Language                                 : English
Default                                  : Yes
Forced                                   : No

Text #2
ID                                       : 11
ID in the original source medium         : 4768 (0x12A0)
Format                                   : PGS
Muxing mode                              : zlib
Codec ID                                 : S_HDMV/PGS
Codec ID/Info                            : Picture based subtitle format used on BDs/HD-DVDs
Duration                                 : 1 h 24 min
Bit rate                                 : 52.3 kb/s
Count of elements                        : 3034
Stream size                              : 31.5 MiB (0%)
Title                                    : English-PGS
Language                                 : English
Default                                  : No
Forced                                   : No
Original source medium                   : Blu-ray

Text #3
ID                                       : 12
ID in the original source medium         : 4769 (0x12A1)
Format                                   : PGS
Muxing mode                              : zlib
Codec ID                                 : S_HDMV/PGS
Codec ID/Info                            : Picture based subtitle format used on BDs/HD-DVDs
Duration                                 : 1 h 29 min
Bit rate                                 : 42.4 kb/s
Count of elements                        : 2772
Stream size                              : 27.3 MiB (0%)
Title                                    : Spanish-PGS
Language                                 : Spanish
Default                                  : No
Forced                                   : No
Original source medium                   : Blu-ray

Text #4
ID                                       : 13
ID in the original source medium         : 4770 (0x12A2)
Format                                   : PGS
Muxing mode                              : zlib
Codec ID                                 : S_HDMV/PGS
Codec ID/Info                            : Picture based subtitle format used on BDs/HD-DVDs
Duration                                 : 1 h 29 min
Bit rate                                 : 46.6 kb/s
Count of elements                        : 2712
Stream size                              : 30.0 MiB (0%)
Title                                    : French-PGS
Language                                 : French
Default                                  : No
Forced                                   : No
Original source medium                   : Blu-ray

Text #5
ID                                       : 14
ID in the original source medium         : 4771 (0x12A3)
Format                                   : PGS
Muxing mode                              : zlib
Codec ID                                 : S_HDMV/PGS
Codec ID/Info                            : Picture based subtitle format used on BDs/HD-DVDs
Duration                                 : 1 h 29 min
Bit rate                                 : 174 b/s
Count of elements                        : 16
Stream size                              : 114 KiB (0%)
Title                                    : Spanish-FORCED-PGS
Language                                 : Spanish
Default                                  : No
Forced                                   : No
Original source medium                   : Blu-ray

Text #6
ID                                       : 15
ID in the original source medium         : 4772 (0x12A4)
Format                                   : PGS
Muxing mode                              : zlib
Codec ID                                 : S_HDMV/PGS
Codec ID/Info                            : Picture based subtitle format used on BDs/HD-DVDs
Duration                                 : 1 h 29 min
Bit rate                                 : 291 b/s
Count of elements                        : 26
Stream size                              : 191 KiB (0%)
Title                                    : French-FORCED-PGS
Language                                 : French
Default                                  : No
Forced                                   : No
Original source medium                   : Blu-ray

Menu
00:00:00.000                             : en:Chapter 01
00:05:12.770                             : en:Chapter 02
00:08:44.857                             : en:Chapter 03
00:12:51.729                             : en:Chapter 04
00:18:25.646                             : en:Chapter 05
00:22:58.835                             : en:Chapter 06
00:27:36.404                             : en:Chapter 07
00:30:34.499                             : en:Chapter 08
00:34:23.311                             : en:Chapter 09
00:38:27.138                             : en:Chapter 10
00:41:12.970                             : en:Chapter 11
00:46:19.276                             : en:Chapter 12
00:50:12.426                             : en:Chapter 13
00:54:22.550                             : en:Chapter 14
00:59:22.767                             : en:Chapter 15
01:03:39.273                             : en:Chapter 16
01:06:25.523                             : en:Chapter 17
01:10:18.297                             : en:Chapter 18
01:15:41.828                             : en:Chapter 19
01:21:19.916                             : en:Chapter 20




                                                                                                                                                                                                        
                                                                                                                                                                                                                                                                                                                                                                                                                                                                                                                                                                                                                                                                                                                                                                                                                                                      
a6e49ebff343c42e93bec34385154549.zip (91.51 KB, 下载次数: 0)

回复

使用道具 举报

小黑屋|百度云资源论坛 |网站地图

本网站所有资源来自网络,如无意中侵犯了您的权益,请发邮件至 [email protected],立即清除相关链接

GMT+8, 2020-11-24 08:07 , Processed in 0.108445 second(s), 23 queries .

Powered by Discuz! X3.2

© 2001-2013 Comsenz Inc.

快速回复 返回顶部 返回列表