百度云资源论坛

 找回密码
 立即注册
搜索

[4K-原盘] 史酷比狗 Scoob.2020.2160p.BluRay.REMUX.HEVC.DTS-HD.MA.5.1-FGT 43.50GB

[复制链接]
百度云电影 发表于 2020-8-16 07:42:41 | 显示全部楼层 |阅读模式
帖子完整标题:史酷比狗 Scoob.2020.2160p.BluRay.REMUX.HEVC.DTS-HD.MA.5.1-FGT 43.50GB




◎译  名 史酷比狗 / S.C.O.O.B / 史酷比大电影
◎片  名 Scooby-Doo
◎年  代 2020
◎产  地 美国
◎类  别 喜剧 / 动画 / 冒险
◎语  言 英语
◎上映日期 2020-05-15(美国)
◎IMDb评分  5.7/10 from 11632 users
◎片  长 94分钟(美国)
◎导  演 托尼·塞沃恩 Tony Cervone
◎编  剧 马特·利伯曼 Matt Lieberman / 亚当·希泰凯尔 Adam Sztykiel / Jack Donaldson / 德里克·艾略特 Derek Elliott / 伊尔·波戴尔 Eyal Podell / 乔纳森·E·斯图尔特 Jonathon E. Stewart / 威廉·汉纳 William Hanna / 约瑟夫·巴伯拉 Joseph Barbera
◎主  演 威尔·福特 Will Forte
       马克·沃尔伯格 Mark Wahlberg
       詹森·艾萨克 Jason Isaacs
       吉娜·罗德里格兹 Gina Rodriguez
       扎克·埃夫隆 Zac Efron
       阿曼达·塞弗里德 Amanda Seyfried
       科雷西·克莱门斯 Kiersey Clemons
       郑肯 Ken Jeong
       崔西·摩根 Tracy Morgan
       弗兰克·维尔克 Frank Welker
       伊恩·阿米蒂奇 Iain Armitage
       麦肯娜·格瑞丝 Mckenna Grace
       皮尔斯·加格农 Pierce Gagnon
       阿丽亚娜·格林布拉特 Ariana Greenblatt
       西蒙·考威尔 Simon Cowell
       克里斯蒂娜·亨德里克斯 Christina Hendricks
       亨利·温克勒 Henry Winkler
       哈里·佩里 Harry Perry
       约翰·迪·马吉欧 John Di Maggio
       凯文·赫夫南 Kevin Heffernan
       伊拉·格拉斯 Ira Glass
       玛雅·厄斯金 Maya Erskine
       比利·维斯特 Billy West
       Don Messick
       弗雷德·塔特西奥 Fred Tatasciore
       贾斯蒂娜·马查多 Justina Machado
       肯妮迪·皮尔 Kennedy Peil
       John McDaniel
       帕姆·科茨 Pam Coats
       托尼·塞沃恩 Tony Cervone
       亚当·希泰凯尔 Adam Sztykiel
       吉姆·麦司奇门 Jim Meskimen


◎标  签 动画 | 美国 | 喜剧 | 2020 | 史酷比 | 华纳 | 电影 | 经典

◎简  介   

  《史酷比狗》是史酷比狗的第一部大银幕动画冒险长片,讲述了史酷比不为人知的起源故事,以及神秘公司史上最精彩的惊世秘案。
  《史酷比狗》演绎了史酷比与其一生挚友夏奇的初次相遇,以及他们如何与少年侦探弗雷德、维尔玛和达芙妮一起组建了世界著名的神秘公司。如今,神秘公司已经解决了数百起谜案、进行了无数次冒险,但史酷比和他的同伴们发现,他们正面临有史以来最惊险、最具挑战性的神秘案件:一个将“幽灵狗”塞伯勒斯释放回世上的阴谋。当他们拼命努力想要阻止这一全球性大灾难之时,他们也发现了史酷比的秘密身世,以及他超乎想象的神秘命运。
Video
ID                                       : 1
ID in the original source medium         : 4113 (0x1011)
Format                                   : HEVC
Format/Info                              : High Efficiency Video Coding
HDR format                               : SMPTE ST 2094 App 4, Version 1, HDR10+ Profile B compatible
Codec ID                                 : V_MPEGH/ISO/HEVC
Duration                                 : 1 h 33 min
Bit rate                                 : 63.2 Mb/s
Width                                    : 3 840 pixels
Height                                   : 2 160 pixels
Display aspect ratio                     : 16:9
Frame rate mode                          : Constant
Frame rate                               : 23.976 (24000/1001/189150) FPS
Color space                              : YUV
Chroma subsampling                       : 4:2:0 (Type 2)
Bit depth                                : 10 bits
Bits/(Pixel*Frame)                       : 0.318
Stream size                              : 41.4 GiB (95%)
Title                                    : Scoob.2020.2160p.BluRay.REMUX.HEVC.DTS-HD.MA.5.1-FGT
Writing library                          : ATEME Titan File 3.9.0 (4.9.0.0)        
Language                                 : English
Default                                  : No
Forced                                   : No
Color range                              : Limited
Color primaries                          : BT.2020
Transfer characteristics                 : PQ
Matrix coefficients                      : BT.2020 non-constant
Mastering display color primaries        : Display P3
Mastering display luminance              : min: 0.0001 cd/m2, max: 1000 cd/m2
Maximum Content Light Level              : 1016 cd/m2
Maximum Frame-Average Light Level        : 115 cd/m2
Original source medium                   : Blu-ray

Audio #1
ID                                       : 2
ID in the original source medium         : 4352 (0x1100)
Format                                   : DTS XLL
Format/Info                              : Digital Theater Systems
Commercial name                          : DTS-HD Master Audio
Codec ID                                 : A_DTS
Duration                                 : 1 h 33 min
Bit rate mode                            : Variable
Bit rate                                 : 2 314 kb/s
Channel(s)                               : 6 channels
Channel layout                           : C L R Ls Rs LFE
Sampling rate                            : 48.0 kHz
Frame rate                               : 93.750 FPS (512 SPF)
Bit depth                                : 16 bits
Compression mode                         : Lossless
Stream size                              : 1.52 GiB (3%)
Title                                    : Scoob.2020.2160p.BluRay.REMUX.HEVC.DTS-HD.MA.5.1-FGT
Language                                 : English
Default                                  : Yes
Forced                                   : No
Original source medium                   : Blu-ray

Audio #2
ID                                       : 3
ID in the original source medium         : 4353 (0x1101)
Format                                   : AC-3
Format/Info                              : Audio Coding 3
Commercial name                          : Dolby Digital
Codec ID                                 : A_AC3
Duration                                 : 1 h 33 min
Bit rate mode                            : Constant
Bit rate                                 : 448 kb/s
Channel(s)                               : 6 channels
Channel layout                           : L R C LFE Ls Rs
Sampling rate                            : 48.0 kHz
Frame rate                               : 31.250 FPS (1536 SPF)
Bit depth                                : 16 bits
Compression mode                         : Lossy
Stream size                              : 300 MiB (1%)
Title                                    : Scoob.2020.2160p.BluRay.REMUX.HEVC.DTS-HD.MA.5.1-FGT
Language                                 : English
Service kind                             : Complete Main
Default                                  : No
Forced                                   : No
Original source medium                   : Blu-ray

Audio #3
ID                                       : 4
ID in the original source medium         : 4354 (0x1102)
Format                                   : AC-3
Format/Info                              : Audio Coding 3
Commercial name                          : Dolby Digital
Codec ID                                 : A_AC3
Duration                                 : 1 h 33 min
Bit rate mode                            : Constant
Bit rate                                 : 448 kb/s
Channel(s)                               : 6 channels
Channel layout                           : L R C LFE Ls Rs
Sampling rate                            : 48.0 kHz
Frame rate                               : 31.250 FPS (1536 SPF)
Bit depth                                : 16 bits
Compression mode                         : Lossy
Stream size                              : 300 MiB (1%)
Title                                    : Scoob.2020.2160p.BluRay.REMUX.HEVC.DTS-HD.MA.5.1-FGT
Language                                 : Spanish
Service kind                             : Complete Main
Default                                  : No
Forced                                   : No
Original source medium                   : Blu-ray

Text #1
ID                                       : 5
Format                                   : UTF-8
Codec ID                                 : S_TEXT/UTF8
Codec ID/Info                            : UTF-8 Plain Text
Duration                                 : 1 h 26 min
Bit rate                                 : 65 b/s
Count of elements                        : 1483
Stream size                              : 41.9 KiB (0%)
Title                                    : English-SRT
Language                                 : English
Default                                  : Yes
Forced                                   : No

Text #2
ID                                       : 6
ID in the original source medium         : 4768 (0x12A0)
Format                                   : PGS
Muxing mode                              : zlib
Codec ID                                 : S_HDMV/PGS
Codec ID/Info                            : Picture based subtitle format used on BDs/HD-DVDs
Duration                                 : 1 h 31 min
Bit rate                                 : 49.6 kb/s
Count of elements                        : 3770
Stream size                              : 32.6 MiB (0%)
Title                                    : English-PGS
Language                                 : English
Default                                  : No
Forced                                   : No
Original source medium                   : Blu-ray

Text #3
ID                                       : 7
ID in the original source medium         : 4769 (0x12A1)
Format                                   : PGS
Muxing mode                              : zlib
Codec ID                                 : S_HDMV/PGS
Codec ID/Info                            : Picture based subtitle format used on BDs/HD-DVDs
Duration                                 : 1 h 33 min
Bit rate                                 : 33.0 kb/s
Count of elements                        : 2752
Stream size                              : 22.0 MiB (0%)
Title                                    : French-PGS
Language                                 : French
Default                                  : No
Forced                                   : No
Original source medium                   : Blu-ray

Text #4
ID                                       : 8
ID in the original source medium         : 4770 (0x12A2)
Format                                   : PGS
Muxing mode                              : zlib
Codec ID                                 : S_HDMV/PGS
Codec ID/Info                            : Picture based subtitle format used on BDs/HD-DVDs
Duration                                 : 1 h 28 min
Bit rate                                 : 38.6 kb/s
Count of elements                        : 2740
Stream size                              : 24.6 MiB (0%)
Title                                    : Spanish-PGS
Language                                 : Spanish
Default                                  : No
Forced                                   : No
Original source medium                   : Blu-ray

Text #5
ID                                       : 9
ID in the original source medium         : 4771 (0x12A3)
Format                                   : PGS
Muxing mode                              : zlib
Codec ID                                 : S_HDMV/PGS
Codec ID/Info                            : Picture based subtitle format used on BDs/HD-DVDs
Duration                                 : 1 h 27 min
Bit rate                                 : 483 b/s
Count of elements                        : 32
Stream size                              : 310 KiB (0%)
Title                                    : Spanish-FORCED_PGS
Language                                 : Spanish
Default                                  : No
Forced                                   : No
Original source medium                   : Blu-ray

Menu
00:00:00.000                             : en:Chapter 01
00:07:40.460                             : en:Chapter 02
00:15:15.372                             : en:Chapter 03
00:25:04.085                             : en:Chapter 04
00:34:40.203                             : en:Chapter 05
00:44:58.487                             : en:Chapter 06
00:53:22.240                             : en:Chapter 07
01:01:22.095                             : en:Chapter 08
01:10:20.049                             : en:Chapter 09
01:19:34.352                             : en:Chapter 10
01:27:17.732                             : en:Chapter 11




                                                                                                                                                                                                        
                                                                         31f194a5770939209480f59673652a13.zip (109.43 KB, 下载次数: 0)

回复

使用道具 举报

小黑屋|百度云资源论坛 |网站地图

本网站所有资源来自网络,如无意中侵犯了您的权益,请发邮件至 [email protected],立即清除相关链接

GMT+8, 2020-9-23 11:07 , Processed in 0.109504 second(s), 23 queries .

Powered by Discuz! X3.2

© 2001-2013 Comsenz Inc.

快速回复 返回顶部 返回列表