百度云资源论坛

 找回密码
 立即注册
搜索

[4K-原盘] 仲夏夜惊魂/仲夏 Midsommar.2019.DC.2160p.BluRay.REMUX.HEVC.DTS-HD.MA.5....

[复制链接]
百度云电影 发表于 2020-8-16 07:42:41 | 显示全部楼层 |阅读模式
帖子完整标题:仲夏夜惊魂/仲夏 Midsommar.2019.DC.2160p.BluRay.REMUX.HEVC.DTS-HD.MA.5.1-FGT 80.71GB




◎译  名 仲夏夜惊魂 / 仲夏 / 仲夏噩梦 / 仲夏节 / 仲夏魇(台)
◎片  名 Midsommar
◎年  代 2019
◎产  地 美国 / 瑞典 / 匈牙利
◎类  别 恐怖
◎语  言 英语 / 瑞典语
◎上映日期 2019-07-03(美国)
◎片  长 147分钟
◎导  演 阿里·艾斯特 Ari Aster
◎编  剧 阿里·艾斯特 Ari Aster
◎主  演 弗洛伦斯·皮尤 Florence Pugh
       杰克·莱诺 Jack Reynor
       维尔赫尔姆·布洛姆根 Vilhelm Blomgren
       威廉·杰克森·哈珀 William Jackson Harper
       威尔·保尔特 Will Poulter
       埃洛拉·托尔基亚 Ellora Torchia
       阿奇·马德基 Archie Madekwe
       亨里克·诺伦 Henrik Norlén
       贡内尔·弗雷德 Gunnel Fred
       伊莎贝尔·古瑞 Isabelle Grill
       朱莉娅·拉格纳森 Julia Ragnarsson
       伯恩·安德森 Bj?rn Andrésen
       安娜·阿斯特罗姆 Anna ?str?m
       丽芙·姆琼斯 Liv Mj?nes
       路易丝·彼得霍夫 Louise Peterhoff
       安琪·拉尔森 Anki Larsson
       拉斯·瓦林格 Lars V?ringer
       马茨·布洛姆格伦 Mats Blomgren
       安德斯·贝克曼 Anders Beckman


◎标  签 惊悚 | 邪教 | 恐怖 | 宗教 | 美国 | 悬疑 | 2019 | CULT

◎简  介   

  丹妮因姐姐及父母意外自杀而日渐崩溃,男友克里斯为了安抚丹妮而邀请丹妮与他的好友来到瑞典的一座偏远村庄参加了一个当地的夏季活动,以令她?怀姐姐及父母身亡的阴影。
  但活动却接二连三地发生怪事,而事情也朝着暴力、诡异的方向发展着,因此他们决定探索这里去解除疑惑。却发现这些美好的丰收背后与他们所信仰的宗教有关。事情的发展亦令丹妮的心理阴影日渐扩大,众人的情绪亦开始兴奋及崩溃起来,陷入分裂的局面??逼迫着他们做出最终的抉择:居留或献祭??

◎获奖情况  

  第91届美国国家评论协会奖(2019)
  十佳独立电影

  第25届美国评论家选择电影奖(2020)
  最佳科幻/恐怖片(提名)

  第35届美国独立精神奖(2020)
  最佳摄影(提名)

  第29届哥谭独立电影奖(2019)
  最佳女演员(提名) 弗洛伦丝·皮尤
  最佳剧本(提名) 阿里·艾斯特

  第54届美国国家影评人协会奖(2020)
  最佳女主角(提名) 弗洛伦丝·皮尤

  第40届伦敦影评人协会奖(2020)
  年度电影(提名)
  年度女主角(提名) 弗洛伦丝·皮尤
  年度英国/爱尔兰女演员(提名) 弗洛伦丝·皮尤

  第32届芝加哥影评人协会奖(2019)
  最佳视觉效果(提名)

  第13届底特律影评人协会奖(2019)
  最佳新人 弗洛伦丝·皮尤

  第23届美国在线影评人协会奖(2020)
  最佳女主角(提名) 弗洛伦丝·皮尤
Video #1
ID                                       : 1
ID in the original source medium         : 4113 (0x1011)
Format                                   : HEVC
Format/Info                              : High Efficiency Video Coding
HDR format                               : SMPTE ST 2086, HDR10 compatible
Codec ID                                 : V_MPEGH/ISO/HEVC
Duration                                 : 2 h 50 min
Bit rate                                 : 58.6 Mb/s
Width                                    : 3 840 pixels
Height                                   : 2 160 pixels
Display aspect ratio                     : 16:9
Frame rate mode                          : Constant
Frame rate                               : 23.976 (24000/1001/189150) FPS
Color space                              : YUV
Chroma subsampling                       : 4:2:0 (Type 2)
Bit depth                                : 10 bits
Bits/(Pixel*Frame)                       : 0.295
Stream size                              : 69.7 GiB (86%)
Title                                    : Midsommar.2019.DC.2160p.BluRay.REMUX.HEVC.DTS-HD.MA.5.1-FGT
Language                                 : English
Default                                  : Yes
Forced                                   : No
Color range                              : Limited
Color primaries                          : BT.2020
Transfer characteristics                 : PQ
Matrix coefficients                      : BT.2020 non-constant
Mastering display color primaries        : BT.2020
Mastering display luminance              : min: 0.0001 cd/m2, max: 1000 cd/m2
Maximum Content Light Level              : 1000 cd/m2
Maximum Frame-Average Light Level        : 483 cd/m2
Original source medium                   : Blu-ray

Video #2
ID                                       : 2
ID in the original source medium         : 4117 (0x1015)
Format                                   : HEVC
Format/Info                              : High Efficiency Video Coding
Format profile                           : Main 1@High
HDR format                               : SMPTE ST 2086, HDR10 compatible
Codec ID                                 : V_MPEGH/ISO/HEVC
Duration                                 : 2 h 50 min
Bit rate                                 : 6 587 kb/s
Width                                    : 1 920 pixels
Height                                   : 1 080 pixels
Display aspect ratio                     : 16:9
Frame rate mode                          : Constant
Frame rate                               : 23.976 (24000/1001/189150) FPS
Color space                              : YUV
Chroma subsampling                       : 4:2:0 (Type 2)
Bit depth                                : 10 bits
Bits/(Pixel*Frame)                       : 0.132
Stream size                              : 7.83 GiB (10%)
Title                                    : Midsommar.2019.DC.2160p.BluRay.REMUX.HEVC.DTS-HD.MA.5.1-FGT
Language                                 : English
Default                                  : No
Forced                                   : No
Color range                              : Limited
Color primaries                          : BT.2020
Transfer characteristics                 : PQ
Matrix coefficients                      : BT.2020 non-constant
Mastering display color primaries        : BT.2020
Mastering display luminance              : min: 0.0001 cd/m2, max: 1000 cd/m2
Original source medium                   : Blu-ray

Audio
ID                                       : 3
ID in the original source medium         : 4352 (0x1100)
Format                                   : DTS XLL
Format/Info                              : Digital Theater Systems
Commercial name                          : DTS-HD Master Audio
Codec ID                                 : A_DTS
Duration                                 : 2 h 50 min
Bit rate mode                            : Variable
Bit rate                                 : 2 662 kb/s
Channel(s)                               : 6 channels
Channel layout                           : C L R Ls Rs LFE
Sampling rate                            : 48.0 kHz
Frame rate                               : 93.750 FPS (512 SPF)
Bit depth                                : 24 bits
Compression mode                         : Lossless
Stream size                              : 3.17 GiB (4%)
Title                                    : Midsommar.2019.DC.2160p.BluRay.REMUX.HEVC.DTS-HD.MA.5.1-FGT
Language                                 : English
Default                                  : Yes
Forced                                   : No
Original source medium                   : Blu-ray

Text #1
ID                                       : 4
Format                                   : UTF-8
Codec ID                                 : S_TEXT/UTF8
Codec ID/Info                            : UTF-8 Plain Text
Duration                                 : 2 h 34 min
Bit rate                                 : 40 b/s
Count of elements                        : 1424
Stream size                              : 45.6 KiB (0%)
Title                                    : English-SRT
Language                                 : English
Default                                  : Yes
Forced                                   : No

Text #2
ID                                       : 5
ID in the original source medium         : 4768 (0x12A0)
Format                                   : PGS
Muxing mode                              : zlib
Codec ID                                 : S_HDMV/PGS
Codec ID/Info                            : Picture based subtitle format used on BDs/HD-DVDs
Duration                                 : 2 h 49 min
Bit rate                                 : 29.7 kb/s
Count of elements                        : 3306
Stream size                              : 35.9 MiB (0%)
Title                                    : English-PGS
Language                                 : English
Default                                  : No
Forced                                   : No
Original source medium                   : Blu-ray

Menu
00:00:00.000                             : en:Chapter 01
00:12:34.378                             : en:Chapter 02
00:28:42.887                             : en:Chapter 03
00:47:34.935                             : en:Chapter 04
00:58:11.237                             : en:Chapter 05
01:14:23.041                             : en:Chapter 06
01:32:50.106                             : en:Chapter 07
01:45:44.046                             : en:Chapter 08
01:57:36.674                             : en:Chapter 09
02:12:00.579                             : en:Chapter 10
02:25:01.567                             : en:Chapter 11
02:39:02.658                             : en:Chapter 12




f3092286ae891f264d9099bcac46b06e.zip (203.29 KB, 下载次数: 0)

回复

使用道具 举报

小黑屋|百度云资源论坛 |网站地图

本网站所有资源来自网络,如无意中侵犯了您的权益,请发邮件至 [email protected],立即清除相关链接

GMT+8, 2020-9-20 15:15 , Processed in 0.121266 second(s), 23 queries .

Powered by Discuz! X3.2

© 2001-2013 Comsenz Inc.

快速回复 返回顶部 返回列表