百度云资源论坛

 找回密码
 立即注册
搜索

幸运的奶奶 Lucky.Grandma.2019.1080p.BluRay.x264-SADPANDA 11.48GB

[复制链接]
百度云资源 发表于 2020-8-16 07:30:39 | 显示全部楼层 |阅读模式
帖子完整标题:幸运的奶奶 Lucky.Grandma.2019.1080p.BluRay.x264-SADPANDA 11.48GB




◎译  名 幸运的奶奶
◎片  名 Lucky Grandma
◎年  代 2019
◎产  地 美国
◎类  别 剧情 / 喜剧
◎语  言 英语 / 汉语普通话 / 粤语
◎上映日期 2019-05-22(美国)
◎IMDb评分  7.0/10 from 286 users
◎片  长 100分钟
◎导  演 萨西·西里 Sasie Sealy
◎编  剧 Angela Cheng / 萨西·西里 Sasie Sealy
◎主  演 周采芹 Tsai Chin
       哈孝远 Hsiao-Yuan Ha
       迈克尔·陶 Michael Tow
       Woody Fu
       Yan Xi
       何伟清 Wai Ching Ho
       克莱姆·张 Clem Cheung
       Eddie Yu
       梅森·任 Mason Yam
       莱曼·陈 Lyman Chen
       Arden Wolfe
       子龙·徐 Zilong Zee
       洪玮婷 Kristen Hung
       Emma Hong
       张韦恩 Wayne Chang
       克里斯蒂娜·张 Christine Chang
       阿丽·安 Ali Ahn


◎标  签 美国 | 喜剧 | 美国电影 | 2019 | AsianAmerican | 剧情 | 犯罪 | 澳门国际影展

◎简  介   

  在纽约的唐人街,一位脾气难搞、烟不离手,且最近刚丧夫的八旬奶奶,决心要以独立女性的面貌展开新人生,不过她的儿子却很担忧,希望她搬来布鲁克林高级住宅区和他一家人一起同住。奶奶住家附近的一位算命师铁口直断说,奶奶未来好运锐不可当,奶奶便决定跳上公车,直奔赌场。她在赌桌上失利,但搭公车返家的路上,一大袋如假包换的钱竟掉落在她腿上,她索性带了这袋钱回家。这件事引起地方黑道觊觎,奶奶只好顾请贴身保镖保护自己,也就此卷入了地方上的帮派恩怨中。
Video
ID                                       : 1
Format                                   : AVC
Format/Info                              : Advanced Video Codec
Format settings                          : CABAC / 4 Ref Frames
Format settings, CABAC                   : Yes
Format settings, Reference frames        : 4 frames
Codec ID                                 : V_MPEG4/ISO/AVC
Duration                                 : 1 h 27 min
Bit rate                                 : 17.1 Mb/s
Width                                    : 1 920 pixels
Height                                   : 1 036 pixels
Display aspect ratio                     : 1.85:1
Frame rate mode                          : Constant
Frame rate                               : 23.976 (24000/1001/189150) FPS
Color space                              : YUV
Chroma subsampling                       : 4:2:0
Bit depth                                : 8 bits
Scan type                                : Progressive
Bits/(Pixel*Frame)                       : 0.358
Stream size                              : 10.4 GiB (91%)
Writing library                          : x264 core 161 r3018 db0d417
Encoding settings                        : cabac=1 / ref=4 / deblock=1:-3:-3 / analyse=0x3:0x133 / me=umh / subme=10 / psy=1 / psy_rd=1.00:0.15 / mixed_ref=1 / me_range=32 / chroma_me=1 / trellis=2 / 8x8dct=1 / cqm=0 / deadzone=21,11 / fast_pskip=0 / chroma_qp_offset=-3 / threads=30 / lookahead_threads=5 / sliced_threads=0 / nr=0 / decimate=1 / interlaced=0 / bluray_compat=0 / constrained_intra=0 / bframes=8 / b_pyramid=2 / b_adapt=2 / b_bias=0 / direct=3 / weightb=1 / open_gop=0 / weightp=2 / keyint=250 / keyint_min=23 / scenecut=40 / intra_refresh=0 / rc=crf / mbtree=0 / crf=17.0 / qcomp=0.60 / qpmin=0 / qpmax=69 / qpstep=4 / ip_ratio=1.40 / pb_ratio=1.30 / aq=3:0.80
Default                                  : Yes
Forced                                   : No

Audio
ID                                       : 2
Format                                   : DTS XLL
Format/Info                              : Digital Theater Systems
Commercial name                          : DTS-HD Master Audio
Codec ID                                 : A_DTS
Duration                                 : 1 h 27 min
Bit rate mode                            : Variable
Bit rate                                 : 1 669 kb/s
Channel(s)                               : 6 channels
Channel layout                           : C L R Ls Rs LFE
Sampling rate                            : 48.0 kHz
Frame rate                               : 93.750 FPS (512 SPF)
Bit depth                                : 16 bits
Compression mode                         : Lossless
Stream size                              : 1.02 GiB (9%)
Language                                 : Chinese
Default                                  : Yes
Forced                                   : No

Text #1
ID                                       : 3
Format                                   : UTF-8
Codec ID                                 : S_TEXT/UTF8
Codec ID/Info                            : UTF-8 Plain Text
Duration                                 : 1 h 19 min
Bit rate                                 : 27 b/s
Count of elements                        : 670
Stream size                              : 16.1 KiB (0%)
Title                                    : Forced
Language                                 : English
Default                                  : Yes
Forced                                   : Yes

Text #2
ID                                       : 4
Format                                   : PGS
Muxing mode                              : zlib
Codec ID                                 : S_HDMV/PGS
Codec ID/Info                            : Picture based subtitle format used on BDs/HD-DVDs
Duration                                 : 1 h 19 min
Bit rate                                 : 16.4 kb/s
Count of elements                        : 1340
Stream size                              : 9.33 MiB (0%)
Title                                    : Forced
Language                                 : English
Default                                  : No
Forced                                   : No

Text #3
ID                                       : 5
Format                                   : UTF-8
Codec ID                                 : S_TEXT/UTF8
Codec ID/Info                            : UTF-8 Plain Text
Duration                                 : 1 h 19 min
Bit rate                                 : 32 b/s
Count of elements                        : 816
Stream size                              : 19.3 KiB (0%)
Title                                    : Full
Language                                 : English
Default                                  : No
Forced                                   : No

Text #4
ID                                       : 6
Format                                   : UTF-8
Codec ID                                 : S_TEXT/UTF8
Codec ID/Info                            : UTF-8 Plain Text
Duration                                 : 1 h 21 min
Bit rate                                 : 44 b/s
Count of elements                        : 1070
Stream size                              : 26.5 KiB (0%)
Title                                    : SDH
Language                                 : English
Default                                  : No
Forced                                   : No

Text #5
ID                                       : 7
Format                                   : PGS
Muxing mode                              : zlib
Codec ID                                 : S_HDMV/PGS
Codec ID/Info                            : Picture based subtitle format used on BDs/HD-DVDs
Duration                                 : 1 h 21 min
Bit rate                                 : 28.1 kb/s
Count of elements                        : 2140
Stream size                              : 16.3 MiB (0%)
Title                                    : SDH
Language                                 : English
Default                                  : No
Forced                                   : No

Menu
00:00:00.000                             : en:Chapter 01
00:02:57.427                             : en:Chapter 02
00:14:36.375                             : en:Chapter 03
00:25:17.391                             : en:Chapter 04
00:38:29.224                             : en:Chapter 05
00:49:28.799                             : en:Chapter 06
00:59:11.381                             : en:Chapter 07
01:08:38.823                             : en:Chapter 08
01:15:52.798                             : en:Chapter 09
01:21:49.530                             : en:Chapter 10





8a23b3a347f0edb637e396e71f79062b.zip (58.92 KB, 下载次数: 0)

回复

使用道具 举报

小黑屋|百度云资源论坛 |网站地图

本网站所有资源来自网络,如无意中侵犯了您的权益,请发邮件至 [email protected],立即清除相关链接

GMT+8, 2020-9-22 19:38 , Processed in 0.106423 second(s), 23 queries .

Powered by Discuz! X3.2

© 2001-2013 Comsenz Inc.

快速回复 返回顶部 返回列表