百度云资源论坛

 找回密码
 立即注册
搜索

伦敦战场/伦敦场地 London.Fields.2018.1080p.BluRay.x264-PSYCHD 6.57GB

[复制链接]
百度云电影 发表于 2020-8-16 07:30:39 | 显示全部楼层 |阅读模式
帖子完整标题:伦敦战场/伦敦场地 London.Fields.2018.1080p.BluRay.x264-PSYCHD 6.57GB




◎译  名 伦敦战场 / 伦敦场地
◎片  名 London Fields
◎年  代 2018
◎产  地 美国
◎类  别 悬疑 / 惊悚 / 犯罪
◎语  言 英语
◎上映日期 2018-10-26(美国)
◎IMDb评分  4.3/10 from 5014 users
◎片  长 118分钟
◎导  演 马提·卡伦 Mathew Cullen
◎编  剧 罗伯塔·汉利 Roberta Hanley / 马丁·艾米斯 Martin Amis
◎主  演 艾梅柏·希尔德 Amber Heard
       嘉玛·陈 Gemma Chan
       卡拉·迪瓦伊 Cara Delevingne
       杰米·亚历山大 Jaimie Alexander
       詹森·艾萨克 Jason Isaacs
       提奥·詹姆斯 Theo James
       约翰尼·德普 Johnny Depp
       比利·鲍伯·松顿 Billy Bob Thornton
       吉姆·斯特吉斯 Jim Sturgess
       莉莉·科尔 Lily Cole
       艾德里安·帕默 Adrian Palmer
       艾米丽·金凯德·休斯 Emily Kincaid Hughes
       亨利·加勒特 Henry Garrett
       迈克尔·谢弗 Michael Shaeffer
       詹妮弗·米索妮 Jennifer Missoni
       阿什克·阿赫塔尔 Asheq Akhtar
       唐汉平 Hon Ping Tang
       克雷格·加纳 Craig Garner
       丽塔-麦克唐纳丹帕 Rita McDonald Damper
       克里斯·雷曼 Chris Ryman
       萨拉·比斯利 Sara Beasley
       约翰·达根 John Duggan
       伊恩·宗 Ian U'Chong
       安库塔·布雷班 Ancuta Breaban


◎标  签 悬疑 | 美国 | 犯罪 | 情色 | 2018 | 剧情 | 文艺 | 惊悚

◎简  介   

  改编自英国小说家马丁艾米斯(Martin Amis)1989年作品《伦敦战场》。安柏赫德主演。
  以英国伦敦为背景,讲述一个具有预知未来能力的美女,她与3个不同的男人周旋,然而她已预知,其中一个人将会谋杀她……

◎获奖情况  

  第39届金酸莓奖(2019)
  最差女主角(提名) 艾梅柏·希尔德
Video
ID                                       : 1
Format                                   : AVC
Format/Info                              : Advanced Video Codec
Format settings                          : CABAC / 5 Ref Frames
Format settings, CABAC                   : Yes
Format settings, Reference frames        : 5 frames
Codec ID                                 : V_MPEG4/ISO/AVC
Duration                                 : 1 h 47 min
Bit rate                                 : 8 060 kb/s
Width                                    : 1 920 pixels
Height                                   : 808 pixels
Display aspect ratio                     : 2.40:1
Frame rate mode                          : Constant
Frame rate                               : 23.976 (24000/1001/189150) FPS
Color space                              : YUV
Chroma subsampling                       : 4:2:0
Bit depth                                : 8 bits
Scan type                                : Progressive
Bits/(Pixel*Frame)                       : 0.217
Stream size                              : 5.94 GiB (91%)
Writing library                          : x264 core 157 r2935 545de2f
Encoding settings                        : cabac=1 / ref=5 / deblock=1:-3:-3 / analyse=0x3:0x113 / me=umh / subme=8 / psy=1 / psy_rd=1.00:0.00 / mixed_ref=1 / me_range=32 / chroma_me=1 / trellis=2 / 8x8dct=1 / cqm=0 / deadzone=21,11 / fast_pskip=1 / chroma_qp_offset=-2 / threads=25 / lookahead_threads=4 / sliced_threads=0 / nr=0 / decimate=1 / interlaced=0 / bluray_compat=0 / constrained_intra=0 / bframes=3 / b_pyramid=2 / b_adapt=2 / b_bias=0 / direct=3 / weightb=1 / open_gop=0 / weightp=2 / keyint=240 / keyint_min=24 / scenecut=40 / intra_refresh=0 / rc_lookahead=50 / rc=2pass / mbtree=1 / bitrate=8060 / ratetol=1.0 / qcomp=0.60 / qpmin=0 / qpmax=69 / qpstep=4 / cplxblur=20.0 / qblur=0.5 / ip_ratio=1.40 / aq=3:0.80
Default                                  : Yes
Forced                                   : No
Statistics Tags Issue                    : no_variable_data 1970-01-01 00:00:00 / no_variable_data 2010-02-22 21:41:29
FromStats_BitRate                        : 8055889
FromStats_Duration                       : 01:47:54.719000000
FromStats_FrameCount                     : 155238
FromStats_StreamSize                     : 6519952429

Audio
ID                                       : 2
Format                                   : AC-3
Format/Info                              : Audio Coding 3
Commercial name                          : Dolby Digital
Codec ID                                 : A_AC3
Duration                                 : 1 h 47 min
Bit rate mode                            : Constant
Bit rate                                 : 640 kb/s
Channel(s)                               : 6 channels
Channel layout                           : L R C LFE Ls Rs
Sampling rate                            : 48.0 kHz
Frame rate                               : 31.250 FPS (1536 SPF)
Compression mode                         : Lossy
Stream size                              : 494 MiB (7%)
Language                                 : English
Service kind                             : Complete Main
Default                                  : Yes
Forced                                   : No
Statistics Tags Issue                    : no_variable_data 1970-01-01 00:00:00 / no_variable_data 2010-02-22 21:41:29
FromStats_BitRate                        : 640000
FromStats_Duration                       : 01:47:54.528000000
FromStats_FrameCount                     : 202329
FromStats_StreamSize                     : 517962240

Text #1
ID                                       : 3
Format                                   : UTF-8
Codec ID                                 : S_TEXT/UTF8
Codec ID/Info                            : UTF-8 Plain Text
Language                                 : English
Default                                  : No
Forced                                   : No
Statistics Tags Issue                    : no_variable_data 1970-01-01 00:00:00 / no_variable_data 2010-02-22 21:41:29
FromStats_BitRate                        : 53
FromStats_Duration                       : 01:45:41.335000000
FromStats_FrameCount                     : 1372
FromStats_StreamSize                     : 42634

Text #2
ID                                       : 4
Format                                   : UTF-8
Codec ID                                 : S_TEXT/UTF8
Codec ID/Info                            : UTF-8 Plain Text
Title                                    : SDH
Language                                 : English
Default                                  : No
Forced                                   : No
Statistics Tags Issue                    : no_variable_data 1970-01-01 00:00:00 / no_variable_data 2010-02-22 21:41:29
FromStats_BitRate                        : 56
FromStats_Duration                       : 01:46:10.280000000
FromStats_FrameCount                     : 1479
FromStats_StreamSize                     : 44795

Menu
00:00:00.000                             : en:Chapter 01
00:15:57.498                             : en:Chapter 02
00:28:36.006                             : en:Chapter 03
00:41:57.890                             : en:Chapter 04
00:53:24.326                             : en:Chapter 05
01:07:31.589                             : en:Chapter 06
01:20:45.632                             : en:Chapter 07
01:42:51.332                             : en:Chapter 08






5d2ba38eeb1eeb11b294156c9eb8c65d.zip (34.38 KB, 下载次数: 0)

回复

使用道具 举报

小黑屋|百度云资源论坛 |网站地图

本网站所有资源来自网络,如无意中侵犯了您的权益,请发邮件至 [email protected],立即清除相关链接

GMT+8, 2020-10-1 23:05 , Processed in 0.149741 second(s), 23 queries .

Powered by Discuz! X3.2

© 2001-2013 Comsenz Inc.

快速回复 返回顶部 返回列表