百度云资源论坛

 找回密码
 立即注册
搜索

玛拉/夜驚 Mara.2018.1080p.BluRay.x264.DTS-CHD 7.74GB

[复制链接]
百度云电影 发表于 2020-8-16 07:30:39 | 显示全部楼层 |阅读模式
帖子完整标题:玛拉/夜驚 Mara.2018.1080p.BluRay.x264.DTS-CHD 7.74GB




◎译  名 玛拉 / 夜驚(台湾)
◎片  名 Mara
◎年  代 2018
◎产  地 英国
◎类  别 惊悚 / 恐怖 / 犯罪
◎语  言 英语
◎上映日期 2018-08-22(菲律宾) / 2018-09-07(美国) / 2018-11-02(中国台湾)
◎IMDb评分  5.1/10 from 6057 users
◎片  长 98分钟
◎导  演 Clive Tonge
◎编  剧 Jonathan Frank
◎主  演 欧嘉·柯瑞兰寇 Olga Kurylenko
       哈维尔·博泰特 Javier Botet
       兰斯·E·尼克尔斯 Lance E. Nichols
       罗茜·费尔纳 Rosie Fellner
       梅丽莎·博洛纳 Melissa Bolona
       吉娅·斯科娃 Gia Skova
       Mitch Eakins
       Mackenzie Imsand
       Dandy Barrett
       Craig Conway
       Kathy McGraw
       Jacob Grodnik


◎标  签 恐怖 | 惊悚 | 英国 | 2018 | 悬疑惊悚 | 英国电影 | 恶魔/驱魔系列 | 欧嘉·柯瑞兰寇

◎简  介   

  影片故事讲述犯罪心理学家凯特(欧嘉·柯瑞兰寇饰)被指控在她睡梦期间谋杀了自己丈夫,而唯一的目击者是他们年仅八岁的女儿。然而当凯特挖掘出深入睡梦的古老面纱后,她更是经历此前受害者经历过的状况,一些恐怖即将袭来。
Video
ID                                       : 1
Format                                   : AVC
Format/Info                              : Advanced Video Codec
Format settings                          : CABAC / 4 Ref Frames
Format settings, CABAC                   : Yes
Format settings, ReFrames                : 4 frames
Codec ID                                 : V_MPEG4/ISO/AVC
Duration                                 : 1 h 39 min
Bit rate                                 : 9 669 kb/s
Width                                    : 1 920 pixels
Height                                   : 804 pixels
Display aspect ratio                     : 2.40:1
Frame rate mode                          : Constant
Frame rate                               : 23.976 (24000/1001/189150) FPS
Color space                              : YUV
Chroma subsampling                       : 4:2:0
Bit depth                                : 8 bits
Scan type                                : Progressive
Bits/(Pixel*Frame)                       : 0.261
Stream size                              : 6.69 GiB (86%)
Writing library                          : x264 core 155 r2867+74 66b5600 t_mod_Custom_2
Encoding settings                        : cabac=1 / ref=4 / deblock=1:-3:-3 / analyse=0x3:0x113 / me=umh / subme=10 / psy=1 / fade_compensate=0.00 / psy_rd=0.90:0.10 / mixed_ref=1 / me_range=48 / chroma_me=1 / trellis=2 / 8x8dct=1 / cqm=0 / deadzone=21,11 / fast_pskip=0 / chroma_qp_offset=-2 / threads=12 / lookahead_threads=2 / sliced_threads=0 / nr=0 / decimate=1 / interlaced=0 / bluray_compat=0 / constrained_intra=0 / fgo=0 / bframes=8 / b_pyramid=2 / b_adapt=2 / b_bias=0 / direct=3 / weightb=1 / open_gop=0 / weightp=2 / keyint=250 / keyint_min=23 / scenecut=40 / intra_refresh=0 / rc_lookahead=40 / rc=crf / mbtree=0 / crf=18.0000 / qcomp=0.70 / qpmin=0:0:0 / qpmax=69:69:69 / qpstep=4 / vbv_maxrate=35000 / vbv_bufsize=35000 / crf_max=0.0 / nal_hrd=none / filler=0 / ip_ratio=1.40 / pb_ratio=1.30 / aq=3:0.90 / aq-sensitivity=10.00 / aq-factor=1.00:1.00:1.00 / aq2=0 / aq3=2:[0.50:0.50]:[0.50:0.50]:[0.50:0.50]:[0.50:0.50] / aq3-sensitivity=10.00 / aq3-factor=[1.00:1.00]:[1.00:1.00]:[1.00:1.00] / aq3-boundary=192:64:24
Language                                 : English
Default                                  : Yes
Forced                                   : No
Color range                              : Limited
Matrix coefficients                      : BT.709

Audio
ID                                       : 2
Format                                   : DTS
Format/Info                              : Digital Theater Systems
Codec ID                                 : A_DTS
Duration                                 : 1 h 39 min
Bit rate mode                            : Constant
Bit rate                                 : 1 509 kb/s
Channel(s)                               : 6 channels
Channel layout                           : C L R Ls Rs LFE
Sampling rate                            : 48.0 kHz
Frame rate                               : 93.750 FPS (512 SPF)
Bit depth                                : 24 bits
Compression mode                         : Lossy
Stream size                              : 1.04 GiB (13%)
Language                                 : English
Default                                  : Yes
Forced                                   : No

Menu
00:00:00.000                             : :00:00:00.000
00:05:37.504                             : :00:05:37.504
00:12:59.904                             : :00:12:59.904
00:17:48.317                             : :00:17:48.317
00:24:14.870                             : :00:24:14.870
00:29:21.301                             : :00:29:21.301
00:38:57.710                             : :00:38:57.710
00:43:11.214                             : :00:43:11.214
00:49:14.869                             : :00:49:14.869
00:55:35.207                             : :00:55:35.207
01:03:00.944                             : :01:03:00.944
01:06:02.500                             : :01:06:02.500
01:15:13.092                             : :01:15:13.092
01:23:41.725                             : :01:23:41.725
01:28:35.101                             : :01:28:35.101
01:31:52.507                             : :01:31:52.507





5d266ce37af947f1bf61f45983ff64c4.zip (78.78 KB, 下载次数: 0)

回复

使用道具 举报

小黑屋|百度云资源论坛 |网站地图

本网站所有资源来自网络,如无意中侵犯了您的权益,请发邮件至 [email protected],立即清除相关链接

GMT+8, 2020-11-25 12:58 , Processed in 0.102776 second(s), 23 queries .

Powered by Discuz! X3.2

© 2001-2013 Comsenz Inc.

快速回复 返回顶部 返回列表