百度云资源论坛

 找回密码
 立即注册
搜索

奇迹救援/奇迹救援 The.Cave.2019.THAI.1080p.BluRay.x264.DTS-CHD 10.35GB

[复制链接]
百度云资源 发表于 2020-8-16 07:30:39 | 显示全部楼层 |阅读模式
帖子完整标题:奇迹救援/奇迹救援 The.Cave.2019.THAI.1080p.BluRay.x264.DTS-CHD 10.35GB




◎译  名 奇迹救援 / 奇迹救援(港) / 洞穴
◎片  名 The Cave
◎年  代 2019
◎产  地 泰国 / 爱尔兰
◎类  别 剧情 / 惊悚 / 冒险
◎语  言 英语 / 泰语
◎上映日期 2019-10-07(釜山电影节)
◎IMDb评分  5.9/10 from 586 users
◎片  长 104分钟
◎导  演 Tom Waller
◎编  剧 汤姆·沃勒 Tom Waller / Katrina Grose / Don Linder
◎主  演 罗恩·斯穆安伯格 Ron Smoorenburg
       约恩·奥布赖恩 Eoin O'Brien
       尼鲁·西里詹亚 Nirut Sirichanya
       罗斯·W·克拉克森 Ross W. Clarkson
       宝儿 Treechada Petcharat
       麦琪·阿帕 Arpa Pawilai
       Ting Sue
       Kelly B. Jones
       Lawrence de Stefano
       Maythavee Burapasing
       Valerie Bentson
       James Edward Holley
       Michael S. New
       Bobby Gerrits
       Zeb Moore


◎标  签 泰国 | 灾难 | 潜水 | 2019 | 泰国电影 | 剧情 | 感人 | 温情

◎简  介   

  真实事件改编。故事源自2018年泰国少年足球队受困山洞,被多国人员救援的新闻。
Video
ID                                       : 1
Format                                   : AVC
Format/Info                              : Advanced Video Codec
Format settings                          : CABAC / 4 Ref Frames
Format settings, CABAC                   : Yes
Format settings, Reference frames        : 4 frames
Codec ID                                 : V_MPEG4/ISO/AVC
Duration                                 : 1 h 44 min
Bit rate                                 : 12.7 Mb/s
Width                                    : 1 920 pixels
Height                                   : 804 pixels
Display aspect ratio                     : 2.40:1
Frame rate mode                          : Constant
Frame rate                               : 24.000 FPS
Color space                              : YUV
Chroma subsampling                       : 4:2:0
Bit depth                                : 8 bits
Scan type                                : Progressive
Bits/(Pixel*Frame)                       : 0.343
Stream size                              : 9.25 GiB (89%)
Writing library                          : x264 core 157 r2867+150 7e91e0e t_mod_Custom_2
Encoding settings                        : cabac=1 / ref=4 / deblock=1:-3:-3 / analyse=0x3:0x133 / me=umh / subme=11 / psy=1 / fade_compensate=0.00 / psy_rd=0.90:0.10 / mixed_ref=1 / me_range=64 / chroma_me=1 / trellis=2 / 8x8dct=1 / cqm=0 / deadzone=21,11 / fast_pskip=0 / chroma_qp_offset=-4 / threads=25 / lookahead_threads=4 / sliced_threads=0 / nr=0 / decimate=1 / interlaced=0 / bluray_compat=0 / constrained_intra=0 / fgo=0 / bframes=8 / b_pyramid=2 / b_adapt=2 / b_bias=0 / direct=3 / weightb=1 / open_gop=0 / weightp=2 / keyint=250 / keyint_min=24 / scenecut=40 / intra_refresh=0 / rc_lookahead=60 / rc=crf / mbtree=0 / crf=18.0000 / qcomp=0.70 / qpmin=0:0:0 / qpmax=69:69:69 / qpstep=4 / vbv_maxrate=35000 / vbv_bufsize=35000 / crf_max=0.0 / nal_hrd=none / filler=0 / ip_ratio=1.40 / pb_ratio=1.30 / aq=3:1.00 / aq-sensitivity=10.00 / aq-factor=1.00:1.00:1.00 / aq2=0 / aq3=0
Language                                 : Thai
Default                                  : Yes
Forced                                   : No

Audio
ID                                       : 2
Format                                   : DTS
Format/Info                              : Digital Theater Systems
Codec ID                                 : A_DTS
Duration                                 : 1 h 44 min
Bit rate mode                            : Constant
Bit rate                                 : 1 509 kb/s
Channel(s)                               : 6 channels
Channel layout                           : C L R Ls Rs LFE
Sampling rate                            : 48.0 kHz
Frame rate                               : 93.750 FPS (512 SPF)
Bit depth                                : 16 bits
Compression mode                         : Lossy
Stream size                              : 1.10 GiB (11%)
Language                                 : Thai
Default                                  : Yes
Forced                                   : No

Text
ID                                       : 3
Format                                   : UTF-8
Codec ID                                 : S_TEXT/UTF8
Codec ID/Info                            : UTF-8 Plain Text
Duration                                 : 1 h 38 min
Bit rate                                 : 45 b/s
Count of elements                        : 1205
Stream size                              : 32.8 KiB (0%)
Language                                 : English
Default                                  : Yes
Forced                                   : No

Menu
00:00:00.000                             : en:绗?01 绔?
00:05:25.583                             : en:绗?02 绔?
00:09:36.583                             : en:绗?03 绔?
00:14:36.667                             : en:绗?04 绔?
00:21:23.250                             : en:绗?05 绔?
00:25:14.625                             : en:绗?06 绔?
00:29:07.417                             : en:绗?07 绔?
00:32:44.875                             : en:绗?08 绔?
00:37:58.667                             : en:绗?09 绔?
00:42:40.792                             : en:绗?10 绔?
00:47:30.083                             : en:绗?11 绔?
00:53:30.333                             : en:绗?12 绔?
00:59:36.458                             : en:绗?13 绔?
01:06:05.708                             : en:绗?14 绔?
01:11:35.750                             : en:绗?15 绔?
01:17:15.000                             : en:绗?16 绔?
01:29:01.167                             : en:绗?17 绔?
01:38:26.792                             : en:绗?18 绔?





888afbc682ba2801bf3e2ef1c89bcc03.zip (53.17 KB, 下载次数: 0)

回复

使用道具 举报

小黑屋|百度云资源论坛 |网站地图

本网站所有资源来自网络,如无意中侵犯了您的权益,请发邮件至 [email protected],立即清除相关链接

GMT+8, 2020-10-2 00:11 , Processed in 0.109813 second(s), 23 queries .

Powered by Discuz! X3.2

© 2001-2013 Comsenz Inc.

快速回复 返回顶部 返回列表