百度云资源论坛

 找回密码
 立即注册
搜索

请寻找我 Bring.Me.Home.2019.KOREAN.1080p.BluRay.x264.DTS-CHD 11.45GB

[复制链接]
百度云电影 发表于 2020-8-16 07:30:39 | 显示全部楼层 |阅读模式
帖子完整标题:请寻找我 Bring.Me.Home.2019.KOREAN.1080p.BluRay.x264.DTS-CHD 11.45GB




◎译  名 请寻找我 / Bring Me Home / 复仇母亲(港 / 台) / 找到我 / 来找我 / 请来找我
◎片  名 ?? ???
◎年  代 2019
◎产  地 韩国
◎类  别 惊悚 / 犯罪
◎语  言 韩语
◎上映日期 2019-09-05(多伦多电影节) / 2019-11-27(韩国)
◎IMDb评分  6.3/10 from 396 users
◎片  长 108分钟
◎导  演 金承宇 Seung-woo Kim
◎编  剧 金承宇 Seung-woo Kim
◎主  演 李英爱 Yeong-ae Lee
       刘在明 Jae-myung Yoo
       李源根 Won-geun Lee
       朴海俊 Hea-jun Park


◎标  签 李英爱 | 犯罪 | 韩国 | 人性 | 韩国电影 | 惊悚 | 2019 | 孩子

◎简  介   

  闊別大銀幕14年,大長今李英愛強勢回歸,飾演一位瀕臨崩潰邊緣的母親,誓要尋回被擄走的兒子。兒子失蹤6年,赫然傳來疑是孩子下落的消息,母親決定隻身走到漁村,希望找出一個被黑道家族控制的小孩,查看他是否失散多年的兒子。奈何冷血的惡人想把孩子留下當生財工具,將她拒諸於門外。母親唯有在雷雨交加的晚上,以極端手段再闖虎穴。首次執導的金勝友,營造張力到家,描繪由心而發的暴力,教人觸目驚心
Video
ID                                       : 1
Format                                   : AVC
Format/Info                              : Advanced Video Codec
Format settings                          : CABAC / 4 Ref Frames
Format settings, CABAC                   : Yes
Format settings, Reference frames        : 4 frames
Codec ID                                 : V_MPEG4/ISO/AVC
Duration                                 : 1 h 48 min
Bit rate                                 : 13.7 Mb/s
Width                                    : 1 920 pixels
Height                                   : 804 pixels
Display aspect ratio                     : 2.40:1
Frame rate mode                          : Constant
Frame rate                               : 24.000 FPS
Color space                              : YUV
Chroma subsampling                       : 4:2:0
Bit depth                                : 8 bits
Scan type                                : Progressive
Bits/(Pixel*Frame)                       : 0.369
Stream size                              : 10.3 GiB (90%)
Writing library                          : x264 core 157 r2867+150 7e91e0e t_mod_Custom_2ncoding settings                        : cabac=1 / ref=4 / deblock=1:-3:-3 / analyse=0x3:0x133 / me=umh / subme=11 / psy=1 / fade_compensate=0.00 / psy_rd=0.90:0.10 / mixed_ref=1 / me_range=64 / chroma_me=1 / trellis=2 / 8x8dct=1 / cqm=0 / deadzone=21,11 / fast_pskip=0 / chroma_qp_offset=-4 / threads=25 / lookahead_threads=4 / sliced_threads=0 / nr=0 / decimate=1 / interlaced=0 / bluray_compat=0 / constrained_intra=0 / fgo=0 / bframes=8 / b_pyramid=2 / b_adapt=2 / b_bias=0 / direct=3 / weightb=1 / open_gop=0 / weightp=2 / keyint=250 / keyint_min=24 / scenecut=40 / intra_refresh=0 / rc_lookahead=60 / rc=crf / mbtree=0 / crf=18.0000 / qcomp=0.70 / qpmin=0:0:0 / qpmax=69:69:69 / qpstep=4 / vbv_maxrate=35000 / vbv_bufsize=35000 / crf_max=0.0 / nal_hrd=none / filler=0 / ip_ratio=1.40 / pb_ratio=1.30 / aq=3:1.00 / aq-sensitivity=10.00 / aq-factor=1.00:1.00:1.00 / aq2=0 / aq3=0
Language                                 : Korean
Default                                  : Yes
Forced                                   : No

Audio
ID                                       : 2
Format                                   : DTS
Format/Info                              : Digital Theater Systems
Codec ID                                 : A_DTS
Duration                                 : 1 h 48 min
Bit rate mode                            : Constant
Bit rate                                 : 1 509 kb/s
Channel(s)                               : 6 channels
Channel layout                           : C L R Ls Rs LFE
Sampling rate                            : 48.0 kHz
Frame rate                               : 93.750 FPS (512 SPF)
Bit depth                                : 16 bits
Compression mode                         : Lossy
Stream size                              : 1.14 GiB (10%)
Language                                 : Korean
Default                                  : Yes
Forced                                   : No

Text
ID                                       : 3
Format                                   : UTF-8
Codec ID                                 : S_TEXT/UTF8
Codec ID/Info                            : UTF-8 Plain Text
Duration                                 : 1 h 41 min
Bit rate                                 : 34 b/s
Count of elements                        : 1042
Stream size                              : 25.3 KiB (0%)
Language                                 : English
Default                                  : Yes
Forced                                   : No






87cfd655eb0edf0c78cc0be214a1498d.zip (58.7 KB, 下载次数: 0)

回复

使用道具 举报

小黑屋|百度云资源论坛 |网站地图

本网站所有资源来自网络,如无意中侵犯了您的权益,请发邮件至 [email protected],立即清除相关链接

GMT+8, 2020-10-22 19:41 , Processed in 0.105491 second(s), 23 queries .

Powered by Discuz! X3.2

© 2001-2013 Comsenz Inc.

快速回复 返回顶部 返回列表