百度云资源论坛

 找回密码
 立即注册
搜索

人间失格:太宰治和三个女人们 No.Longer.Human.2019.JAPANESE.1080p....

[复制链接]
百度云电影 发表于 2020-8-16 07:30:39 | 显示全部楼层 |阅读模式
帖子完整标题:人间失格:太宰治和三个女人们 No.Longer.Human.2019.JAPANESE.1080p.BluRay.x264.DTS-CHD 9.63GB




◎译  名 人间失格:太宰治和三个女人们 / No Longer Human / No Longer Human: Dazai Osamu and Three Women / 人间失格 太宰与三个女人 / 人间失格:太宰治和3个女人 / 人间失格:太宰治和他的女人
◎片  名 人間失格 太宰治と3人の女たち
◎年  代 2019
◎产  地 日本
◎类  别 剧情
◎语  言 日语
◎上映日期 2019-09-13(日本)
◎IMDb评分  5.9/10 from 228 users
◎片  长 120分钟
◎导  演 蜷川实花 Mika Ninagawa
◎编  剧 早船歌江子 Kaeko Hayafune
◎主  演 小栗旬 Shun Oguri
       宫泽理惠 Rie Miyazawa
       泽尻英龙华 Erika Sawajiri
       二阶堂富美 Fumi Nikaidou
       成田凌 Ryo Narita
       千叶雄大 Yudai Chiba
       濑户康史 Koji Seto
       高良健吾 Kengo Kora
       藤原龙也 Tatsuya Fujiwara
       坛蜜 Mitsu Dan


◎标  签 小栗旬 | 太宰治 | 日本 | 蜷川实花 | 日本电影 | 2019 | 电影 | 泽尻英龙华

◎简  介   

  太宰治與蜷川實花的組合,一字記之曰:色。蜷川並不服膺於太宰治半自傳小說《人間失格》的隔靴搔癢,借書之名直接拍他本人和三個女人的故事。太宰治的妻子美知子、有志成為作家的情人靜子和他最後一位情人富榮,分別由演技派女優宮澤理惠、澤尻英龍華和二階堂富美飾演,襯托著蜷川分別為三女精心設計的主題色調,色彩濃烈絢麗的畫面是一場流動的視覺盛宴。為了對抗生命的無力感,太宰治沉溺於女人與酒精,在靡爛晦暗的生活中追逐死亡之光。在蜷川的鏡頭下,他既是才子,亦是賤男,他的不堪,反而折射出人間的脆弱和美好。

◎获奖情况  

  第43届日本电影学院奖(2020)
  最佳女主角(提名) 宫泽理惠
  最佳女配角(提名) 二阶堂富美
Video
ID                                       : 1
Format                                   : AVC
Format/Info                              : Advanced Video Codec
Format settings                          : CABAC / 4 Ref Frames
Format settings, CABAC                   : Yes
Format settings, Reference frames        : 4 frames
Codec ID                                 : V_MPEG4/ISO/AVC
Duration                                 : 2 h 0 min
Bit rate                                 : 10 000 kb/s
Width                                    : 1 920 pixels
Height                                   : 1 036 pixels
Display aspect ratio                     : 1.85:1
Frame rate mode                          : Constant
Frame rate                               : 23.976 (24000/1001/189150) FPS
Color space                              : YUV
Chroma subsampling                       : 4:2:0
Bit depth                                : 8 bits
Scan type                                : Progressive
Bits/(Pixel*Frame)                       : 0.210
Stream size                              : 8.36 GiB (87%)
Writing library                          : x264 core 157 r2867+150 7e91e0e t_mod_Custom_2
Encoding settings                        : cabac=1 / ref=4 / deblock=1:-1:-1 / analyse=0x3:0x133 / me=umh / subme=11 / psy=0 / mixed_ref=1 / me_range=64 / chroma_me=1 / trellis=2 / 8x8dct=1 / cqm=0 / deadzone=21,11 / fast_pskip=0 / chroma_qp_offset=0 / threads=32 / lookahead_threads=5 / sliced_threads=0 / nr=0 / decimate=1 / interlaced=0 / bluray_compat=0 / constrained_intra=0 / fgo=0 / bframes=8 / b_pyramid=2 / b_adapt=2 / b_bias=0 / direct=3 / weightb=1 / open_gop=0 / weightp=2 / keyint=250 / keyint_min=1 / scenecut=40 / intra_refresh=0 / rc=2pass / mbtree=0 / bitrate=10000 / ratetol=1.0 / qcomp=0.70 / qpmin=0:0:0 / qpmax=69:69:69 / qpstep=4 / cplxblur=20.0 / qblur=0.5 / ip_ratio=1.40 / pb_ratio=1.30 / aq=3:0.90 / aq-sensitivity=10.00 / aq-factor=1.00:1.00:1.00 / aq2=0 / aq3=0
Language                                 : Japanese
Default                                  : Yes
Forced                                   : No

Audio
ID                                       : 2
Format                                   : DTS
Format/Info                              : Digital Theater Systems
Codec ID                                 : A_DTS
Duration                                 : 2 h 0 min
Bit rate mode                            : Constant
Bit rate                                 : 1 509 kb/s
Channel(s)                               : 6 channels
Channel layout                           : C L R Ls Rs LFE
Sampling rate                            : 48.0 kHz
Frame rate                               : 93.750 FPS (512 SPF)
Bit depth                                : 16 bits
Compression mode                         : Lossy
Stream size                              : 1.27 GiB (13%)
Language                                 : Japanese
Default                                  : Yes
Forced                                   : No

Text
ID                                       : 3
Format                                   : UTF-8
Codec ID                                 : S_TEXT/UTF8
Codec ID/Info                            : UTF-8 Plain Text
Duration                                 : 1 h 55 min
Bit rate                                 : 27 b/s
Count of elements                        : 956
Stream size                              : 23.3 KiB (0%)
Language                                 : English
Default                                  : Yes
Forced                                   : No

Menu
00:00:00.000                             : en:绗?01 绔?
00:05:44.094                             : en:绗?02 绔?
00:12:41.761                             : en:绗?03 绔?
00:19:06.354                             : en:绗?04 绔?
00:28:09.396                             : en:绗?05 绔?
00:33:03.190                             : en:绗?06 绔?
00:41:11.010                             : en:绗?07 绔?
00:47:57.249                             : en:绗?08 绔?
00:52:36.153                             : en:绗?09 绔?
00:58:02.229                             : en:绗?10 绔?
01:05:04.234                             : en:绗?11 绔?
01:09:06.642                             : en:绗?12 绔?
01:17:37.903                             : en:绗?13 绔?
01:19:51.578                             : en:绗?14 绔?
01:23:36.428                             : en:绗?15 绔?
01:29:01.920                             : en:绗?16 绔?
01:34:14.691                             : en:绗?17 绔?
01:41:20.199                             : en:绗?18 绔?
01:49:56.173                             : en:绗?19 绔?
01:56:40.660                             : en:绗?20 绔?




f02080aae46e4ba89b66795b6ee85cb2.zip (49.62 KB, 下载次数: 0)

回复

使用道具 举报

小黑屋|百度云资源论坛 |网站地图

本网站所有资源来自网络,如无意中侵犯了您的权益,请发邮件至 [email protected],立即清除相关链接

GMT+8, 2020-9-27 22:15 , Processed in 0.097142 second(s), 23 queries .

Powered by Discuz! X3.2

© 2001-2013 Comsenz Inc.

快速回复 返回顶部 返回列表