百度云资源论坛

 找回密码
 立即注册
搜索

过境/时空中转站 Transit.2018.1080p.BluRay.x264-USURY 7.65GB

[复制链接]
百度云电影 发表于 2020-8-16 07:30:39 | 显示全部楼层 |阅读模式
帖子完整标题:过境/时空中转站 Transit.2018.1080p.BluRay.x264-USURY 7.65GB




◎译  名 过境 / 时空中转站(港) / 过境情谜(台)
◎片  名 Transit
◎年  代 2018
◎产  地 德国 / 法国
◎类  别 剧情
◎语  言 德语 / 法语 / 法国手语
◎上映日期 2018-02-17(柏林电影节) / 2018-04-05(德国)
◎IMDb评分  6.9/10 from 7092 users
◎片  长 101分钟
◎导  演 克里斯蒂安·佩措尔德 Christian Petzold
◎编  剧 克里斯蒂安·佩措尔德 Christian Petzold / 安娜·西格斯 Anna Seghers
◎主  演 弗兰茨·罗戈夫斯基 Franz Rogowski
       葆拉·贝尔 Paula Beer
       郭德贺·吉瑟 Godehard Giese
       Lilien Batman
       Maryam Zaree
       巴尔巴拉·奥尔 Barbara Auer
       马蒂亚斯·勃兰特 Matthias Brandt
       塞巴斯蒂安·胡克 Sebastian Hülk
       尤斯图斯·冯·多赫纳尼 Justus von Dohnányi
       亚历克斯·布伦德穆尔 àlex Brendemühl
       特里斯坦·皮特 Trystan Pütter
       罗纳德·库克利斯 Ronald Kukulies


◎标  签 德国 | 2018 | 法国 | 剧情 | 二战 | 柏林电影节 | 历史 | 小说改编

◎简  介   

  德国军队就在巴黎城外。格奥尔在最后一刻逃到了马赛。他的行李中带着一个叫Weidel的作家的遗产,这个作害怕遭受迫害而选择了自尽。这些遗产中有一份手稿,一些信件,和墨西哥大使馆对签证的一份担保。只有这些才能证明他们已被允许从这座港口城市离开,离开这里意味着还需要一份来自潜在东道国的入境许可。以Weidel的假身份,格奥尔试图获取船上的一些稀缺通道。难民之间的会谈在他小旅馆的走廊上,领事馆的等候室里,以及港口边上的咖啡厅和酒吧中进行着。格奥尔帮忙照顾着他已逝战友海因茨的儿子,海因茨在逃亡时不幸过世。但他的计划在遇见那个神秘姑娘玛丽时改变了。《过境》基于德国女作家安娜·西格斯撰写的二战同名小说改编,电影以现代马赛为背景,来自过去的人们在这里四处出现。因此,过去的难民会与今日的难民相遇,历史与今生相遇,他们所有的故事融合在一起构成一个永恒的过境空间。

◎获奖情况  

  第68届柏林国际电影节(2018)
  金熊奖 最佳影片(提名) 克里斯蒂安·佩措尔德

  第91届美国国家评论协会奖(2019)
  五佳外语片

  第32届芝加哥影评人协会奖(2019)
  最佳外语片(提名)
Video
ID                                       : 1
Format                                   : AVC
Format/Info                              : Advanced Video Codec
Format settings                          : CABAC / 5 Ref Frames
Format settings, CABAC                   : Yes
Format settings, Reference frames        : 5 frames
Codec ID                                 : V_MPEG4/ISO/AVC
Duration                                 : 1 h 41 min
Bit rate                                 : 9 264 kb/s
Width                                    : 1 920 pixels
Height                                   : 808 pixels
Display aspect ratio                     : 2.40:1
Frame rate mode                          : Constant
Frame rate                               : 23.976 (24000/1001/189150) FPS
Color space                              : YUV
Chroma subsampling                       : 4:2:0
Bit depth                                : 8 bits
Scan type                                : Progressive
Bits/(Pixel*Frame)                       : 0.249
Stream size                              : 6.57 GiB (86%)
Writing library                          : x264 core 157 r2969 d4099dd
Encoding settings                        : cabac=1 / ref=5 / deblock=1:-3:-3 / analyse=0x3:0x133 / me=umh / subme=9 / psy=1 / psy_rd=1.00:0.00 / mixed_ref=1 / me_range=16 / chroma_me=1 / trellis=2 / 8x8dct=1 / cqm=0 / deadzone=21,11 / fast_pskip=0 / chroma_qp_offset=-2 / threads=18 / lookahead_threads=1 / sliced_threads=0 / nr=0 / decimate=1 / interlaced=0 / bluray_compat=0 / constrained_intra=0 / bframes=3 / b_pyramid=2 / b_adapt=1 / b_bias=0 / direct=3 / weightb=1 / open_gop=0 / weightp=2 / keyint=240 / keyint_min=24 / scenecut=40 / intra_refresh=0 / rc_lookahead=50 / rc=2pass / mbtree=1 / bitrate=9264 / ratetol=1.0 / qcomp=0.60 / qpmin=0 / qpmax=69 / qpstep=4 / cplxblur=20.0 / qblur=0.5 / ip_ratio=1.40 / aq=1:1.00
Language                                 : English
Default                                  : Yes
Forced                                   : No

Audio
ID                                       : 2
Format                                   : DTS
Format/Info                              : Digital Theater Systems
Codec ID                                 : A_DTS
Duration                                 : 1 h 41 min
Bit rate mode                            : Constant
Bit rate                                 : 1 509 kb/s
Channel(s)                               : 6 channels
Channel layout                           : C L R Ls Rs LFE
Sampling rate                            : 48.0 kHz
Frame rate                               : 93.750 FPS (512 SPF)
Bit depth                                : 24 bits
Compression mode                         : Lossy
Stream size                              : 1.07 GiB (14%)
Language                                 : German
Default                                  : Yes
Forced                                   : No

Text #1
ID                                       : 3
Format                                   : UTF-8
Codec ID                                 : S_TEXT/UTF8
Codec ID/Info                            : UTF-8 Plain Text
Duration                                 : 1 h 36 min
Bit rate                                 : 50 b/s
Count of elements                        : 1008
Stream size                              : 35.5 KiB (0%)
Title                                    : English
Language                                 : English
Default                                  : Yes
Forced                                   : Yes

Text #2
ID                                       : 4
Format                                   : UTF-8
Codec ID                                 : S_TEXT/UTF8
Codec ID/Info                            : UTF-8 Plain Text
Duration                                 : 1 h 41 min
Bit rate                                 : 56 b/s
Count of elements                        : 1212
Stream size                              : 42.0 KiB (0%)
Title                                    : English SDH
Language                                 : English
Default                                  : No
Forced                                   : No

Menu
00:00:00.000                             : en:00:00:00.000
00:09:03.501                             : en:00:09:03.501
00:18:16.887                             : en:00:18:16.887
00:25:25.232                             : en:00:25:25.232
00:32:24.276                             : en:00:32:24.276
00:41:31.823                             : en:00:41:31.823
00:51:51.900                             : en:00:51:51.900
01:01:24.431                             : en:01:01:24.431
01:11:22.528                             : en:01:11:22.528
01:20:31.910                             : en:01:20:31.910
01:27:08.473                             : en:01:27:08.473
01:33:28.186                             : en:01:33:28.186
01:37:44.275                             : en:01:37:44.275




cff396404b00f4734cec2ddc84d261f8.zip (39.7 KB, 下载次数: 0)

回复

使用道具 举报

小黑屋|百度云资源论坛 |网站地图

本网站所有资源来自网络,如无意中侵犯了您的权益,请发邮件至 [email protected],立即清除相关链接

GMT+8, 2020-9-29 12:21 , Processed in 0.100954 second(s), 23 queries .

Powered by Discuz! X3.2

© 2001-2013 Comsenz Inc.

快速回复 返回顶部 返回列表