百度云资源论坛

 找回密码
 立即注册
搜索

货架之间 In.the.Aisles.2018.1080p.BluRay.x264-USURY 8.75GB

[复制链接]
百度云资源 发表于 2020-8-16 07:30:39 | 显示全部楼层 |阅读模式
帖子完整标题:货架之间 In.the.Aisles.2018.1080p.BluRay.x264-USURY 8.75GB




◎译  名 货架之间 / In the Aisles / 卖场华尔兹(台) / 在走廊里 / 超市情缘(港) / 过道上
◎片  名 In den G?ngen
◎年  代 2018
◎产  地 德国
◎类  别 剧情 / 爱情
◎语  言 德语
◎上映日期 2018-02-23(柏林电影节) / 2018-05-24(德国)
◎IMDb评分  6.9/10 from 3593 users
◎片  长 125分钟
◎导  演 托马斯·斯图伯 Thomas Stuber
◎编  剧 克莱芒·迈尔 Clemens Meyer / 托马斯·斯图伯 Thomas Stuber
◎主  演 桑德拉·惠勒 Sandra Hüller
       弗兰茨·罗戈夫斯基 Franz Rogowski
       彼得·库尔特 Peter Kurth
       亨宁·佩克 Henning Peker
       拉莫娜·库泽-莉比诺 Ramona Kunze-Libnow
       格瑞迪·京特 Gerdy Zint
       克莱芒·迈尔 Clemens Meyer
       安德雷亚斯·利奥波德 Andreas Leupold
       斯特芬·施曼 Steffen Scheumann
       迈克尔·施佩希特 Michael Specht
       萨沙·纳丹 Sascha Nathan
       Matthias Brenner


◎标  签 德国 | 2018 | 孤独 | 爱情 | 剧情 | 生活 | 文艺 | 温情

◎简  介   

  《过道上》在2018年柏林电影节竞赛单元首映。斯图伯打开了一扇朝向德国东部的普通工人的窗户,日常生活被转化成神奇的现实主义, 温柔的爱情故事被暂时性地拨转向希望的层面上。害羞而孤僻的克里斯蒂安丢了工作,随后来到一家批发市场上班,受到了饮料部门像父亲般慈爱的布鲁诺的关照。克里斯蒂安喜欢上了经常在一起开玩笑的玛丽昂,但玛丽昂已经结婚了,克里斯蒂安对她的情愫似乎得不到结果。

◎获奖情况  

  第68届柏林国际电影节(2018)
  金熊奖 最佳影片(提名) 托马斯·施图伯
Video
ID                                       : 1
Format                                   : AVC
Format/Info                              : Advanced Video Codec
Format settings                          : CABAC / 4 Ref Frames
Format settings, CABAC                   : Yes
Format settings, Reference frames        : 4 frames
Codec ID                                 : V_MPEG4/ISO/AVC
Duration                                 : 2 h 0 min
Bit rate                                 : 8 908 kb/s
Width                                    : 1 792 pixels
Height                                   : 1 080 pixels
Display aspect ratio                     : 5:3
Frame rate mode                          : Constant
Frame rate                               : 25.000 FPS
Color space                              : YUV
Chroma subsampling                       : 4:2:0
Bit depth                                : 8 bits
Scan type                                : Progressive
Bits/(Pixel*Frame)                       : 0.184
Stream size                              : 7.48 GiB (85%)
Writing library                          : x264 core 155 r2901 7d0ff22
Encoding settings                        : cabac=1 / ref=4 / deblock=1:-3:-3 / analyse=0x3:0x133 / me=umh / subme=9 / psy=1 / psy_rd=1.00:0.00 / mixed_ref=1 / me_range=16 / chroma_me=1 / trellis=2 / 8x8dct=1 / cqm=0 / deadzone=21,11 / fast_pskip=0 / chroma_qp_offset=-2 / threads=24 / lookahead_threads=2 / sliced_threads=0 / nr=0 / decimate=1 / interlaced=0 / bluray_compat=0 / constrained_intra=0 / bframes=3 / b_pyramid=2 / b_adapt=1 / b_bias=0 / direct=3 / weightb=1 / open_gop=0 / weightp=2 / keyint=250 / keyint_min=25 / scenecut=40 / intra_refresh=0 / rc_lookahead=50 / rc=2pass / mbtree=1 / bitrate=8908 / ratetol=1.0 / qcomp=0.60 / qpmin=0 / qpmax=69 / qpstep=4 / cplxblur=20.0 / qblur=0.5 / ip_ratio=1.40 / aq=1:1.00
Language                                 : English
Default                                  : Yes
Forced                                   : No

Audio
ID                                       : 2
Format                                   : DTS
Format/Info                              : Digital Theater Systems
Codec ID                                 : A_DTS
Duration                                 : 2 h 0 min
Bit rate mode                            : Constant
Bit rate                                 : 1 509 kb/s
Channel(s)                               : 6 channels
Channel layout                           : C L R Ls Rs LFE
Sampling rate                            : 48.0 kHz
Frame rate                               : 93.750 FPS (512 SPF)
Bit depth                                : 24 bits
Compression mode                         : Lossy
Stream size                              : 1.27 GiB (14%)
Language                                 : German
Default                                  : Yes
Forced                                   : No

Text
ID                                       : 3
Format                                   : UTF-8
Codec ID                                 : S_TEXT/UTF8
Codec ID/Info                            : UTF-8 Plain Text
Duration                                 : 1 h 57 min
Bit rate                                 : 21 b/s
Count of elements                        : 685
Stream size                              : 18.4 KiB (0%)
Title                                    : English
Language                                 : English
Default                                  : Yes
Forced                                   : Yes

Menu
00:00:00.000                             : en:00:00:00.000
00:02:44.560                             : en:00:02:44.560
00:15:17.360                             : en:00:15:17.360
00:28:19.960                             : en:00:28:19.960
00:40:07.760                             : en:00:40:07.760
00:53:39.120                             : en:00:53:39.120
01:06:50.800                             : en:01:06:50.800
01:17:20.120                             : en:01:17:20.120
01:27:04.440                             : en:01:27:04.440
01:35:31.880                             : en:01:35:31.880
01:52:25.720                             : en:01:52:25.720
01:55:00.240                             : en:01:55:00.240





a5a7fe2eecf31dc6ecdb877ad433717d.zip (89.04 KB, 下载次数: 0)

回复

使用道具 举报

小黑屋|百度云资源论坛 |网站地图

本网站所有资源来自网络,如无意中侵犯了您的权益,请发邮件至 [email protected],立即清除相关链接

GMT+8, 2020-9-24 21:44 , Processed in 0.103985 second(s), 23 queries .

Powered by Discuz! X3.2

© 2001-2013 Comsenz Inc.

快速回复 返回顶部 返回列表