百度云资源论坛

 找回密码
 立即注册
搜索

幸福的拉扎罗 Happy.as.Lazzaro.2018.LIMITED.1080p.BluRay.x264-USURY 9.85GB

[复制链接]
百度云电影 发表于 2020-8-16 07:30:39 | 显示全部楼层 |阅读模式
帖子完整标题:幸福的拉扎罗 Happy.as.Lazzaro.2018.LIMITED.1080p.BluRay.x264-USURY 9.85GB




◎译  名 幸福的拉扎罗 / Happy as Lazzaro / 幸福的拉札洛(台) / 睡王子的快乐传说(港)
◎片  名 Lazzaro felice
◎年  代 2018
◎产  地 意大利 / 瑞士 / 法国 / 德国
◎类  别 剧情 / 奇幻
◎语  言 意大利语
◎上映日期 2018-05-13(戛纳电影节) / 2018-05-31(意大利)
◎IMDb评分  7.6/10 from 13631 users
◎片  长 127分钟
◎导  演 爱丽丝·洛尔瓦彻 Alice Rohrwacher
◎编  剧 爱丽丝·洛尔瓦彻 Alice Rohrwacher
◎主  演 阿德里亚诺·塔尔迪奥洛 Adriano Tardiolo
       阿格内斯·格拉齐亚尼 Agnese Graziani
       卢卡·奇科瓦尼 Luca Chikovani
       阿尔巴·罗尔瓦赫尔 Alba Rohrwacher
       塞尔希·洛佩斯 Sergi López
       Natalino Balasso
       托马索·劳格诺 Tommaso Ragno
       尼可莱塔·布拉斯基 Nicoletta Braschi
       达里亚·帕斯卡·阿托利尼 Daria Pascal Attolini
       达维德·登西 Davide Denci
       Pasqualina Scuncia


◎标  签 意大利 | 奇幻 | 文艺 | 人性 | 剧情 | 戛纳电影节 | 2018 | 法国

◎简  介   

  拉扎罗(阿德里亚诺·塔尔迪奥洛 饰)是一位内心单纯的年轻农民,坦克雷迪(卢卡·奇科瓦尼 饰)则是一位骄横的年轻贵族。他在Inviolata这座与世隔绝的小城内生活,这个城镇则由侯爵夫人阿诺西纳·德·卢娜(尼可莱塔·布拉斯基 饰)所统治。年轻的农民和年轻的贵族相遇并成为好友。某天,坦克雷迪自导自演了一场绑架戏码,希望骗到母亲的赎金,不料最终引来了警察……

◎获奖情况  

  第71届戛纳电影节(2018)
  主竞赛单元 金棕榈奖(提名) 爱丽丝·洛尔瓦彻
  主竞赛单元 最佳编剧 爱丽丝·洛尔瓦彻

  第32届欧洲电影奖(2019)
  观众选择奖(提名)

  第31届欧洲电影奖(2018)
  最佳影片(提名)
  最佳导演(提名) 爱丽丝·洛尔瓦彻
  最佳女主角(提名) 阿尔芭·洛尔瓦彻
  最佳编剧(提名) 爱丽丝·洛尔瓦彻

  第64届意大利大卫奖(2019)
  最佳影片(提名)
  最佳导演(提名) 爱丽丝·洛尔瓦彻
  最佳原创剧本(提名) 爱丽丝·洛尔瓦彻
  最佳制片人(提名)
  最佳女配角(提名) 尼可莱塔·布拉斯基
  最佳摄影(提名) 海莲娜·勒瓦
  最佳美术设计(提名)
  最佳服装设计(提名)
  最佳音效(提名)

  第90届美国国家评论协会奖(2018)
  五佳外语片

  第34届美国独立精神奖(2019)
  最佳国际电影(提名)

  第40届伦敦影评人协会奖(2020)
  年度外语片(提名)

  第2届平遥国际电影展(2018)
  影展之最单元最受欢迎影片(提名) 爱丽丝·洛尔瓦彻

  第5届豆瓣电影年度榜单(2018)
  评分最高的外语电影(提名)
  评分最高的欧洲电影
Video
ID                                       : 1
Format                                   : AVC
Format/Info                              : Advanced Video Codec
Format settings                          : CABAC / 4 Ref Frames
Format settings, CABAC                   : Yes
Format settings, Reference frames        : 4 frames
Codec ID                                 : V_MPEG4/ISO/AVC
Duration                                 : 2 h 7 min
Bit rate                                 : 9 522 kb/s
Width                                    : 1 760 pixels
Height                                   : 1 080 pixels
Display aspect ratio                     : 16:10
Frame rate mode                          : Constant
Frame rate                               : 23.976 (24000/1001/189150) FPS
Color space                              : YUV
Chroma subsampling                       : 4:2:0
Bit depth                                : 8 bits
Scan type                                : Progressive
Bits/(Pixel*Frame)                       : 0.209
Stream size                              : 8.49 GiB (86%)
Writing library                          : x264 core 157 r2969 d4099dd
Encoding settings                        : cabac=1 / ref=4 / deblock=1:-3:-3 / analyse=0x3:0x133 / me=umh / subme=9 / psy=1 / psy_rd=1.00:0.00 / mixed_ref=1 / me_range=16 / chroma_me=1 / trellis=2 / 8x8dct=1 / cqm=0 / deadzone=21,11 / fast_pskip=0 / chroma_qp_offset=-2 / threads=18 / lookahead_threads=1 / sliced_threads=0 / nr=0 / decimate=1 / interlaced=0 / bluray_compat=0 / constrained_intra=0 / bframes=3 / b_pyramid=2 / b_adapt=1 / b_bias=0 / direct=3 / weightb=1 / open_gop=0 / weightp=2 / keyint=240 / keyint_min=24 / scenecut=40 / intra_refresh=0 / rc_lookahead=50 / rc=2pass / mbtree=1 / bitrate=9522 / ratetol=1.0 / qcomp=0.60 / qpmin=0 / qpmax=69 / qpstep=4 / cplxblur=20.0 / qblur=0.5 / ip_ratio=1.40 / aq=1:1.00
Language                                 : English
Default                                  : Yes
Forced                                   : No

Audio
ID                                       : 2
Format                                   : DTS
Format/Info                              : Digital Theater Systems
Codec ID                                 : A_DTS
Duration                                 : 2 h 7 min
Bit rate mode                            : Constant
Bit rate                                 : 1 509 kb/s
Channel(s)                               : 6 channels
Channel layout                           : C L R Ls Rs LFE
Sampling rate                            : 48.0 kHz
Frame rate                               : 93.750 FPS (512 SPF)
Bit depth                                : 24 bits
Compression mode                         : Lossy
Stream size                              : 1.35 GiB (14%)
Language                                 : Italian
Default                                  : Yes
Forced                                   : No

Text
ID                                       : 3
Format                                   : UTF-8
Codec ID                                 : S_TEXT/UTF8
Codec ID/Info                            : UTF-8 Plain Text
Duration                                 : 2 h 0 min
Bit rate                                 : 39 b/s
Count of elements                        : 1426
Stream size                              : 35.2 KiB (0%)
Title                                    : English
Language                                 : English
Default                                  : Yes
Forced                                   : Yes

Menu
00:00:00.000                             : en:00:00:00.000
00:09:30.153                             : en:00:09:30.153
00:21:16.150                             : en:00:21:16.150
00:28:04.558                             : en:00:28:04.558
00:49:21.959                             : en:00:49:21.959
00:57:57.057                             : en:00:57:57.057
01:05:42.147                             : en:01:05:42.147
01:16:18.115                             : en:01:16:18.115
01:23:31.131                             : en:01:23:31.131
01:34:02.971                             : en:01:34:02.971
01:44:18.961                             : en:01:44:18.961
01:51:46.617                             : en:01:51:46.617





35367e21f29e5173069aebe7a916cd08.zip (50.81 KB, 下载次数: 0)

回复

使用道具 举报

小黑屋|百度云资源论坛 |网站地图

本网站所有资源来自网络,如无意中侵犯了您的权益,请发邮件至 [email protected],立即清除相关链接

GMT+8, 2020-9-30 11:32 , Processed in 0.114316 second(s), 23 queries .

Powered by Discuz! X3.2

© 2001-2013 Comsenz Inc.

快速回复 返回顶部 返回列表