百度云资源论坛

 找回密码
 立即注册
搜索

红海行动 Operation.Red.Sea.2018.CHINESE.1080p.BluRay.x264.DTS-CHD 16.96GB

[复制链接]
百度云电影 发表于 2020-8-16 07:30:39 | 显示全部楼层 |阅读模式
帖子完整标题:红海行动 Operation.Red.Sea.2018.CHINESE.1080p.BluRay.x264.DTS-CHD 16.96GB




◎译  名 Operation Red Sea / 刀锋·红海行动 / 红海风暴
◎片  名 红海行动
◎年  代 2018
◎产  地 中国大陆 / 中国香港
◎类  别 动作 / 战争
◎语  言 汉语普通话 / 阿拉伯语 / 英语 / 索马里语 / 粤语
◎上映日期 2018-02-16(中国大陆) / 2020-07-24(中国大陆重映)
◎IMDb评分  6.7/10 from 5731 users
◎片  长 138分钟
◎导  演 林超贤 Dante Lam
◎编  剧 冯骥 Ji Feng / 陈珠珠 Zhuzhu Chen / 林明杰 Eric Lin
◎主  演 张译 Yi Zhang
       黄景瑜 Jingyu Huang
       海清 Hai-Qing
       杜江 Jiang Du
       蒋璐霞 Luxia Jiang
       尹昉 Fang Yin
       王强 Qiang Wang
       郭郁滨 Yubin Guo
       王雨甜 Yutian Wang
       麦亨利 Henry Mai
       张涵予 Hanyu Zhang
       王彦霖 Yanlin Wang


◎标  签 军事 | 热血 | 战争 | 特种部队 | 爱国 | 动作 | 中国大陆 | 真实事件改编

◎简  介   

  中东国家伊维亚共和国发生政变,武装冲突不断升级。刚刚在索马里执行完解救人质任务的海军护卫舰临沂号,受命前往伊维亚执行撤侨任务。舰长高云(张涵予 饰)派出杨锐(张译 饰)率领的蛟龙突击队登陆战区,护送华侨安全撤离。谁知恐怖组织扎卡却将撤侨部队逼入交火区,一场激烈的战斗在所难免。与此同时,法籍华人记者夏楠(海清 饰)正在伊维亚追查威廉·柏森博士贩卖核原料的事实,而扎卡则突袭柏森博士所在的公司,意图抢走核原料。混战中,一名隶属柏森博士公司的中国员工成为人质。为了解救该人质,八名蛟龙队员必须潜入有150名恐怖分子的聚集点,他们用自己的信念和鲜血铸成中国军人顽强不屈的丰碑!
  本片根据也门撤侨事件改编。

◎获奖情况  

  第38届香港电影金像奖(2019)
  最佳电影(提名) 林超贤
  最佳导演(提名) 林超贤
  最佳女配角(提名) 蒋璐霞
  最佳摄影(提名) 冯远文 / 黄永恒
  最佳剪接(提名) 蔡志雄 / 林志恒
  最佳动作设计 林超贤
  最佳音响效果 诺帕瓦特·里基特王 / Sarunyu Nurnsai
  最佳视觉效果 李仁浩 / 姜泰均

  第32届中国电影金鸡奖(2019)
  最佳故事片(提名)
  最佳导演 林超贤
  最佳女配角(提名) 蒋璐霞

  第34届大众电影百花奖(2018)
  最佳故事片
  最佳导演 林超贤
  最佳编剧(提名) 林超贤 / 冯骥 / 陈珠珠 / 林明杰
  最佳男主角(提名) 张译
  最佳女主角(提名) 海清
  最佳男配角 杜江
  最佳男配角(提名) 张涵予
  最佳女配角 蒋璐霞
  最佳新人 王雨甜
  最佳新人(提名) 黄景瑜

  第17届中国电影华表奖(2018)
  优秀故事片奖
  优秀导演奖 林超贤
  优秀编剧奖(提名) 林超贤

  第13届亚洲电影大奖(2019)
  最高票房亚洲电影大奖
  最佳新演员 黄景瑜
  最佳剪接(提名) 蔡志雄 / 林志恒
  最佳视觉效果(提名) 李仁浩 / 姜泰均
  最佳音响(提名) 诺帕瓦特·里基特王 / Sarunyu Nurnsai

  第8届北京国际电影节(2018)
  天坛奖 最佳视觉效果奖
  天坛奖(提名) 林超贤

  第14届中国长春电影节(2018)
  金鹿奖 最佳华语故事片
  金鹿奖 最佳女配角 蒋璐霞
  金鹿奖 最佳摄影 冯远文

  第25届北京大学生电影节(2018)
  最佳影片奖
  最佳男演员奖(提名) 张译
  最佳观赏效果奖(提名)

  第5届豆瓣电影年度榜单(2018)
  评分最高的华语电影(提名)
  最受关注的院线电影(提名)

  第4届豆瓣电影年度榜单(2017)
  最值得期待的华语电影(提名)
Video
ID                                       : 1
Format                                   : AVC
Format settings                          : CABAC / 4 Ref Frames
Format settings, CABAC                   : Yes
Format settings, ReFrames                : 4 frames
Codec ID                                 : V_MPEG4/ISO/AVC
Duration                                 : 2 h 18 min
Bit rate                                 : 16.0 Mb/s
Width                                    : 1 920 pixels
Height                                   : 804 pixels
Display aspect ratio                     : 2.40:1
Frame rate mode                          : Constant
Frame rate                               : 24.000 FPS
Color space                              : YUV
Chroma subsampling                       : 4:2:0
Bit depth                                : 8 bits
Scan type                                : Progressive
Bits/(Pixel*Frame)                       : 0.432
Stream size                              : 15.5 GiB (91%)
Writing library                          : x264 core 155 r2867+74 66b5600 t_mod_Custom_2
Encoding settings                        : cabac=1 / ref=4 / deblock=1:-3:-3 / analyse=0x3:0x133 / me=umh / subme=11 / psy=1 / fade_compensate=0.00 / psy_rd=0.95:0.10 / mixed_ref=1 / me_range=48 / chroma_me=1 / trellis=2 / 8x8dct=1 / cqm=0 / deadzone=21,11 / fast_pskip=0 / chroma_qp_offset=-4 / threads=12 / lookahead_threads=2 / sliced_threads=0 / nr=0 / decimate=1 / interlaced=0 / bluray_compat=0 / constrained_intra=0 / fgo=0 / bframes=8 / b_pyramid=2 / b_adapt=2 / b_bias=0 / direct=3 / weightb=1 / open_gop=0 / weightp=2 / keyint=250 / keyint_min=24 / scenecut=40 / intra_refresh=0 / rc_lookahead=30 / rc=2pass / mbtree=0 / bitrate=16000 / ratetol=1.0 / qcomp=0.70 / qpmin=0:0:0 / qpmax=69:69:69 / qpstep=4 / cplxblur=20.0 / qblur=0.5 / vbv_maxrate=35000 / vbv_bufsize=35000 / nal_hrd=none / filler=0 / ip_ratio=1.40 / pb_ratio=1.30 / aq=3:1.00 / aq-sensitivity=10.00 / aq-factor=1.00:1.00:1.00 / aq2=0 / aq3=2:[0.50:0.50]:[0.50:0.50]:[0.50:0.50]:[0.50:0.50] / aq3-sensitivity=10.00 / aq3-factor=[1.00:1.00]:[1.00:1.00]:[1.00:1.00] / aq3-boundary=192:64:24
Language                                 : Chinese
Default                                  : Yes
Forced                                   : No

Audio
ID                                       : 2
Format                                   : DTS
Format/Info                              : Digital Theater Systems
Codec ID                                 : A_DTS
Duration                                 : 2 h 18 min
Bit rate mode                            : Constant
Bit rate                                 : 1 509 kb/s
Channel(s)                               : 6 channels
Channel positions                        : Front: L C R, Side: L R, LFE
Sampling rate                            : 48.0 kHz
Frame rate                               : 93.750 FPS (512 SPF)
Bit depth                                : 24 bits
Compression mode                         : Lossy
Stream size                              : 1.46 GiB (9%)
Language                                 : Chinese
Default                                  : Yes
Forced                                   : No

Text
ID                                       : 3
Format                                   : PGS
Muxing mode                              : zlib
Codec ID                                 : S_HDMV/PGS
Codec ID/Info                            : Picture based subtitle format used on BDs/HD-DVDs
Duration                                 : 2 h 13 min
Bit rate                                 : 23.5 kb/s
Count of elements                        : 2908
Stream size                              : 22.5 MiB (0%)
Language                                 : Chinese
Default                                  : Yes
Forced                                   : No

Menu
00:00:00.000                             : en:00:00:00.000
00:13:45.250                             : en:00:13:45.250
00:21:00.125                             : en:00:21:00.125
00:30:05.000                             : en:00:30:05.000
00:43:07.000                             : en:00:43:07.000
00:50:28.333                             : en:00:50:28.333
01:01:29.708                             : en:01:01:29.708
01:14:04.625                             : en:01:14:04.625
01:21:09.083                             : en:01:21:09.083
01:33:48.833                             : en:01:33:48.833
01:42:31.458                             : en:01:42:31.458
01:52:23.667                             : en:01:52:23.667
02:01:09.083                             : en:02:01:09.083
02:16:05.500                             : en:02:16:05.500






7602cd9cee1597c966b578cd0c96f4d0.zip (86.28 KB, 下载次数: 0)

回复

使用道具 举报

小黑屋|百度云资源论坛 |网站地图

本网站所有资源来自网络,如无意中侵犯了您的权益,请发邮件至 [email protected],立即清除相关链接

GMT+8, 2020-9-28 06:13 , Processed in 0.097947 second(s), 23 queries .

Powered by Discuz! X3.2

© 2001-2013 Comsenz Inc.

快速回复 返回顶部 返回列表