百度云资源论坛

 找回密码
 立即注册
搜索

终极巅峰: 逃离劳卡拉 The.Final.Level.Escaping.Rancala.2019.1080p.Blu...

[复制链接]
百度云电影 发表于 2020-8-16 07:30:39 | 显示全部楼层 |阅读模式
帖子完整标题:终极巅峰: 逃离劳卡拉 The.Final.Level.Escaping.Rancala.2019.1080p.BluRay.x264-HANDJOB 7.49GB




◎译  名 终极巅峰: 逃离劳卡拉 / Apocalypse Island / 末日之岛
◎片  名 The Final Level: Escaping Rancala
◎年  代 2019
◎产  地 美国
◎类  别 动作 / 科幻 / 奇幻 / 冒险
◎语  言 英语
◎上映日期 2019-12-10(美国)
◎片  长 90分钟
◎导  演 Canyon Prince
◎编  剧 Daniel Lusko
◎主  演 白灵
       艾米丽·斯威特
       Jessica Chancellor
       安东尼·C·费兰特


◎标  签 白灵 | 科幻 | 惊悚 | 奇幻 | 动作 | 剧情 | 冒险 | 3D

◎简  介   

  当一个街机房经理意识到她的哥哥被传送到了一个危险的电子游戏世界中,她和她的两个好朋友跟随他进入了虚拟世界,与危险的生物和一个会不惜一切代价让他们留在游戏中并使他们成为他的军队的邪恶军阀对决。
Video
ID                                       : 1
Format                                   : AVC
Format/Info                              : Advanced Video Codec
Format settings                          : CABAC / 4 Ref Frames
Format settings, CABAC                   : Yes
Format settings, Reference frames        : 4 frames
Codec ID                                 : V_MPEG4/ISO/AVC
Duration                                 : 1 h 27 min
Bit rate                                 : 11.6 Mb/s
Width                                    : 1 920 pixels
Height                                   : 1 012 pixels
Display aspect ratio                     : 1.897
Frame rate mode                          : Constant
Frame rate                               : 23.976 (24000/1001/189150) FPS
Color space                              : YUV
Chroma subsampling                       : 4:2:0
Bit depth                                : 8 bits
Scan type                                : Progressive
Bits/(Pixel*Frame)                       : 0.250
Stream size                              : 7.09 GiB (95%)
Writing library                          : x264 core 157 r2935 545de2f
Encoding settings                        : cabac=1 / ref=4 / deblock=1:-3:-3 / analyse=0x3:0x133 / me=umh / subme=10 / psy=1 / psy_rd=1.00:0.00 / mixed_ref=1 / me_range=32 / chroma_me=1 / trellis=2 / 8x8dct=1 / cqm=0 / deadzone=21,11 / fast_pskip=0 / chroma_qp_offset=-2 / threads=12 / lookahead_threads=3 / sliced_threads=0 / nr=0 / decimate=0 / interlaced=0 / bluray_compat=0 / constrained_intra=0 / bframes=16 / b_pyramid=2 / b_adapt=2 / b_bias=0 / direct=3 / weightb=1 / open_gop=0 / weightp=2 / keyint=240 / keyint_min=24 / scenecut=40 / intra_refresh=0 / rc_lookahead=60 / rc=crf / mbtree=0 / crf=18.5 / qcomp=0.60 / qpmin=0 / qpmax=69 / qpstep=4 / vbv_maxrate=62500 / vbv_bufsize=78125 / crf_max=0.0 / nal_hrd=none / filler=0 / ip_ratio=1.40 / pb_ratio=1.30 / aq=2:1.00
Default                                  : Yes
Forced                                   : No
Color range                              : Limited
Color primaries                          : BT.709
Transfer characteristics                 : BT.709
Matrix coefficients                      : BT.709

Audio
ID                                       : 2
Format                                   : AC-3
Format/Info                              : Audio Coding 3
Commercial name                          : Dolby Digital
Codec ID                                 : A_AC3
Duration                                 : 1 h 27 min
Bit rate mode                            : Constant
Bit rate                                 : 640 kb/s
Channel(s)                               : 6 channels
Channel layout                           : L R C LFE Ls Rs
Sampling rate                            : 48.0 kHz
Frame rate                               : 31.250 FPS (1536 SPF)
Compression mode                         : Lossy
Stream size                              : 400 MiB (5%)
Language                                 : English
Service kind                             : Complete Main
Default                                  : Yes
Forced                                   : No

Menu
00:00:00.000                             : :Chapter 1
00:03:42.055                             : :Chapter 2
00:15:29.262                             : :Chapter 3
00:23:08.387                             : :Chapter 4
00:28:46.975                             : :Chapter 5
00:40:23.630                             : :Chapter 6
00:49:39.643                             : :Chapter 7
00:57:23.941                             : :Chapter 8
01:06:51.591                             : :Chapter 9
01:20:48.552                             : :Chapter 10




                                                                                                                                                                                                        


1ad9482e53ee56d5ef89820c3546d312.zip (38.91 KB, 下载次数: 0)

回复

使用道具 举报

小黑屋|百度云资源论坛 |网站地图

本网站所有资源来自网络,如无意中侵犯了您的权益,请发邮件至 [email protected],立即清除相关链接

GMT+8, 2020-9-27 21:01 , Processed in 0.100795 second(s), 23 queries .

Powered by Discuz! X3.2

© 2001-2013 Comsenz Inc.

快速回复 返回顶部 返回列表