百度云资源论坛

 找回密码
 立即注册
搜索

影像之书 The.Image.Book.2018.1080p.BluRay.x264-USURY 6.56GB

[复制链接]
百度云资源 发表于 2020-8-16 07:30:39 | 显示全部楼层 |阅读模式
-->
帖子完整标题:影像之书 The.Image.Book.2018.1080p.BluRay.x264-USURY 6.56GB




◎译  名 影像之书 / Image and Word / The Image Book / The Picture Book / 图像策(港) / 影像与言语 / 影像书(港)
◎片  名 Le livre d'image
◎年  代 2018
◎产  地 瑞士 / 法国
◎类  别 剧情
◎语  言 法语 / 英语 / 阿拉伯语 / 意大利语 / 德语
◎上映日期 2018-05-11(戛纳电影节)
◎IMDb评分  6.2/10 from 2133 users
◎  https://www.imdb.com/title/tt5749596
◎豆瓣评分 7.7/10 from 2687 users
◎ 
◎片  长 85分钟
◎导  演 让-吕克·戈达尔 Jean-Luc Godard
◎编  剧 让-吕克·戈达尔 Jean-Luc Godard
◎主  演 让-吕克·戈达尔 Jean-Luc Godard


◎标  签 戈达尔 | 法国 | 2018 | 纪录片 | 戛纳电影节 | 实验 | 瑞士 | 剧情

◎简  介   

  你还记得我们与内心交流的方式吗?梦境是最常见的方式……我们一直思索如此鲜艳的色彩如何能在黑暗中孕育而生,微弱而温和的话语在梦境中响起,讲述着一些重要的、惊奇的、深刻的真理。影像与话语,就像暴雨夜中噩梦。在西方的眼下,天堂失落,战争就在此地……

◎获奖情况  

  第71届戛纳电影节(2018)
  主竞赛单元 金棕榈奖(提名) 让-吕克·戈达尔
  主竞赛单元 特别金棕榈奖 让-吕克·戈达尔

  第66届圣塞巴斯蒂安国际电影节(2018)
  开放电影大奖(提名) 让-吕克·戈达尔
Video
ID                                       : 1
Format                                   : AVC
Format/Info                              : Advanced Video Codec
Format profile                           : [email protected]
Format settings                          : CABAC / 4 Ref Frames
Format settings, CABAC                   : Yes
Format settings, Reference frames        : 4 frames
Codec ID                                 : V_MPEG4/ISO/AVC
Duration                                 : 1 h 28 min
Bit rate                                 : 9 121 kb/s
Width                                    : 1 920 pixels
Height                                   : 1 080 pixels
Display aspect ratio                     : 16:9
Frame rate mode                          : Constant
Frame rate                               : 23.976 (24000/1001/189150) FPS
Color space                              : YUV
Chroma subsampling                       : 4:2:0
Bit depth                                : 8 bits
Scan type                                : Progressive
Bits/(Pixel*Frame)                       : 0.183
Stream size                              : 5.63 GiB (86%)
Writing library                          : x264 core 157 r2969 d4099dd
Encoding settings                        : cabac=1 / ref=4 / deblock=1:-3:-3 / analyse=0x3:0x133 / me=umh / subme=9 / psy=1 / psy_rd=1.00:0.00 / mixed_ref=1 / me_range=16 / chroma_me=1 / trellis=2 / 8x8dct=1 / cqm=0 / deadzone=21,11 / fast_pskip=0 / chroma_qp_offset=-2 / threads=18 / lookahead_threads=1 / sliced_threads=0 / nr=0 / decimate=1 / interlaced=0 / bluray_compat=0 / constrained_intra=0 / bframes=3 / b_pyramid=2 / b_adapt=1 / b_bias=0 / direct=3 / weightb=1 / open_gop=0 / weightp=2 / keyint=240 / keyint_min=24 / scenecut=40 / intra_refresh=0 / rc_lookahead=50 / rc=2pass / mbtree=1 / bitrate=9121 / ratetol=1.0 / qcomp=0.60 / qpmin=0 / qpmax=69 / qpstep=4 / cplxblur=20.0 / qblur=0.5 / ip_ratio=1.40 / aq=1:1.00
Language                                 : English
Default                                  : Yes
Forced                                   : No

Audio
ID                                       : 2
Format                                   : DTS ES
Format/Info                              : Digital Theater Systems
Commercial name                          : DTS-ES Matrix
Codec ID                                 : A_DTS
Duration                                 : 1 h 28 min
Bit rate mode                            : Constant
Bit rate                                 : 1 509 kb/s
Channel(s)                               : 6 channels
Channel(s)_Original                      : 7 channels
ChannelLayout_Original                   : C L R Ls Rs Cs LFE
Sampling rate                            : 48.0 kHz
Frame rate                               : 93.750 FPS (512 SPF)
Bit depth                                : 24 bits
Compression mode                         : Lossy
Stream size                              : 953 MiB (14%)
Language                                 : French
Default                                  : Yes
Forced                                   : No

Text
ID                                       : 3
Format                                   : UTF-8
Codec ID                                 : S_TEXT/UTF8
Codec ID/Info                            : UTF-8 Plain Text
Duration                                 : 1 h 26 min
Bit rate                                 : 19 b/s
Count of elements                        : 463
Stream size                              : 12.2 KiB (0%)
Title                                    : English
Language                                 : English
Default                                  : Yes
Forced                                   : Yes

Menu
00:00:00.000                             : en:00:00:00.000
00:11:47.582                             : en:00:11:47.582
00:20:28.727                             : en:00:20:28.727
00:26:01.602                             : en:00:26:01.602
00:33:05.108                             : en:00:33:05.108
00:37:50.185                             : en:00:37:50.185
00:48:01.796                             : en:00:48:01.796
00:55:10.682                             : en:00:55:10.682
01:06:41.998                             : en:01:06:41.998
01:16:40.596                             : en:01:16:40.596




                                                                                                                                                                                                        
                                                                                                                                                                                                                                                                                                                                                                                                                                                                                                                                                                                                                                                                                                                                                                                                                                                        
8fe2a591d2ba2d9c64fb840a937d5a37.zip (34.28 KB, 下载次数: 0)

回复

使用道具 举报

小黑屋|百度云资源论坛 |网站地图

本网站所有资源来自网络,如无意中侵犯了您的权益,请发邮件至 [email protected],立即清除相关链接

GMT+8, 2020-11-30 10:29 , Processed in 0.110494 second(s), 23 queries .

Powered by Discuz! X3.2

© 2001-2013 Comsenz Inc.

快速回复 返回顶部 返回列表