百度云资源论坛

 找回密码
 立即注册
搜索

虎胆追凶/猛龙怪客 Death.Wish.2018.UNCUT.1080p.BluRay.x264-CAPRiCORN 1...

[复制链接]
百度云资源 发表于 2020-5-25 19:35:45 | 显示全部楼层 |阅读模式
帖子完整标题:虎胆追凶/猛龙怪客 Death.Wish.2018.UNCUT.1080p.BluRay.x264-CAPRiCORN 14.70GB




◎译  名 虎胆追凶 / 猛龙怪客
◎片  名 Death Wish
◎年  代 2018
◎产  地 美国
◎类  别 动作 / 惊悚 / 犯罪
◎语  言 英语
◎上映日期 2018-03-02(美国) / 2018-09-21(中国大陆)
◎IMDb评分  6.4/10 from 58939 users
◎片  长 97分钟(中国)
◎导  演 伊莱·罗斯 Eli Roth
◎编  剧 乔·卡纳汉 Joe Carnahan / 布赖恩·加菲尔德 Brian Garfield / 温德尔·梅斯 Wendell Mayes
◎主  演 布鲁斯·威利斯 Bruce Willis
       文森特·多诺费奥 Vincent D'Onofrio
       伊丽莎白·苏 Elisabeth Shue
       迪恩·诺里斯 Dean Norris
       博·纳普 Beau Knapp
       金伯莉·伊丽丝 Kimberly Elise
       卡米拉·莫罗 Camila Morrone
       兰·卡琉 Len Cariou
       杰克·凯西 Jack Kesy
       罗尼·吉恩·贝尔维斯 Ronnie Gene Blevins
       可比·毕丝·布兰顿 Kirby Bliss Blanton
       安德里亚斯·艾波吉斯 Andreas Apergis
       伊恩·马休斯 Ian Matthews
       温迪·古逊 Wendy Crewson
       瓦罗娜·塞茨瓦埃洛 Warona Setshwaelo
       路易斯·奥利瓦 Luis Oliva
       杰森·卡弗利尔 Jason Cavalier
       夸西·宋桂 Kwasi Songui


◎标  签 犯罪 | 美国 | 动作 | 暴力 | 复仇 | 2018 | 惊悚 | 翻拍

◎简  介  

  在枪案频发的芝加哥,保罗原本是一个温文儒雅仁心妙手的医生,拥有一个幸福美满的家庭。一场突如其来的厄运让他的妻女惨遭暴徒欺凌,女儿昏迷不醒,爱妻更因此丧失生命,与他天人永隔。然而,城市里连串的凶案让警方束手无策,种种原因使得保罗的案件无法结案,本应受到制裁的凶徒逍遥法外。
  在崩溃和绝望中,保罗的人生价值观彻底改变。为了替家人复仇,保罗决定孤身寻凶,主动出击,单枪匹马在城市街头制裁暴力犯罪。警方和大众对这位伸张正义的神秘“帽兜男”众说纷纭,争论不休。在“守护天使”的外衣下,保罗最终迎来了和仇人的生死决战。

◎获奖情况  

  第39届金酸莓奖(2019)
  最差男主角(提名) 布鲁斯·威利斯
  最差前传、重拍、恶搞及续集电影(提名)
Video
ID                                       : 1
Format                                   : AVC
Format/Info                              : Advanced Video Codec
Format settings                          : CABAC / 5 Ref Frames
Format settings, CABAC                   : Yes
Format settings, Reference frames        : 5 frames
Codec ID                                 : V_MPEG4/ISO/AVC
Duration                                 : 1 h 47 min
Bit rate                                 : 16.1 Mb/s
Width                                    : 1 920 pixels
Height                                   : 800 pixels
Display aspect ratio                     : 2.40:1
Frame rate mode                          : Constant
Frame rate                               : 23.976 (24000/1001/189150) FPS
Color space                              : YUV
Chroma subsampling                       : 4:2:0
Bit depth                                : 8 bits
Scan type                                : Progressive
Bits/(Pixel*Frame)                       : 0.437
Stream size                              : 12.1 GiB (83%)
Writing library                          : x264 core 160 r3000 33f9e14
Encoding settings                        : cabac=1 / ref=5 / deblock=1:0:0 / analyse=0x3:0x133 / me=umh / subme=9 / psy=1 / psy_rd=1.00:0.00 / mixed_ref=1 / me_range=16 / chroma_me=1 / trellis=2 / 8x8dct=1 / cqm=0 / deadzone=21,11 / fast_pskip=1 / chroma_qp_offset=-2 / threads=12 / lookahead_threads=1 / sliced_threads=0 / nr=0 / decimate=1 / interlaced=0 / bluray_compat=0 / constrained_intra=0 / bframes=3 / b_pyramid=2 / b_adapt=2 / b_bias=0 / direct=3 / weightb=1 / open_gop=0 / weightp=2 / keyint=240 / keyint_min=23 / scenecut=40 / intra_refresh=0 / rc_lookahead=60 / rc=crf / mbtree=1 / crf=13.6 / qcomp=0.60 / qpmin=0 / qpmax=69 / qpstep=4 / vbv_maxrate=62500 / vbv_bufsize=78125 / crf_max=0.0 / nal_hrd=none / filler=0 / ip_ratio=1.40 / aq=1:1.00
Language                                 : English
Default                                  : Yes
Forced                                   : No

Audio #1
ID                                       : 2
Format                                   : DTS XLL
Format/Info                              : Digital Theater Systems
Commercial name                          : DTS-HD Master Audio
Codec ID                                 : A_DTS
Duration                                 : 1 h 47 min
Bit rate mode                            : Variable
Bit rate                                 : 3 259 kb/s
Channel(s)                               : 6 channels
Channel layout                           : C L R Ls Rs LFE
Sampling rate                            : 48.0 kHz
Frame rate                               : 93.750 FPS (512 SPF)
Bit depth                                : 24 bits
Compression mode                         : Lossless
Stream size                              : 2.46 GiB (17%)
Language                                 : English
Default                                  : Yes
Forced                                   : No

Audio #2
ID                                       : 3
Format                                   : AAC LC
Format/Info                              : Advanced Audio Codec Low Complexity
Codec ID                                 : A_AAC-2
Duration                                 : 1 h 47 min
Bit rate                                 : 124 kb/s
Channel(s)                               : 2 channels
Channel layout                           : L R
Sampling rate                            : 48.0 kHz
Frame rate                               : 46.875 FPS (1024 SPF)
Compression mode                         : Lossy
Delay relative to video                  : 20 ms
Stream size                              : 96.1 MiB (1%)
Title                                    : Commentary
Language                                 : English
Default                                  : No
Forced                                   : No

Text #1
ID                                       : 4
Format                                   : UTF-8
Codec ID                                 : S_TEXT/UTF8
Codec ID/Info                            : UTF-8 Plain Text
Duration                                 : 1 h 47 min
Bit rate                                 : 61 b/s
Count of elements                        : 1361
Stream size                              : 48.3 KiB (0%)
Language                                 : English
Default                                  : Yes
Forced                                   : No

Text #2
ID                                       : 5
Format                                   : PGS
Muxing mode                              : zlib
Codec ID                                 : S_HDMV/PGS
Codec ID/Info                            : Picture based subtitle format used on BDs/HD-DVDs
Duration                                 : 1 h 47 min
Bit rate                                 : 17.8 kb/s
Count of elements                        : 2722
Stream size                              : 13.6 MiB (0%)
Language                                 : English
Default                                  : No
Forced                                   : No

Menu
00:00:00.000                             : en:00:00:00.000
00:09:24.355                             : en:00:09:24.355
00:17:21.624                             : en:00:17:21.624
00:25:07.256                             : en:00:25:07.256
00:33:19.080                             : en:00:33:19.080
00:41:52.552                             : en:00:41:52.552
00:50:11.133                             : en:00:50:11.133
00:58:51.445                             : en:00:58:51.445
01:08:19.637                             : en:01:08:19.637
01:13:55.806                             : en:01:13:55.806
01:23:41.224                             : en:01:23:41.224
01:32:51.566                             : en:01:32:51.566



                                                                                                                                                                                                        
                                                                                                                                                                                                                                                                                                                                                                                                                                                                                                                                                                                                                                                                                                                                                                                                                                                       2d8b1ec743e965132b771f1bdc2f676b.torrent (74.17 KB, 下载次数: 0)

回复

使用道具 举报

小黑屋|百度云资源论坛 |网站地图

本网站所有资源来自网络,如无意中侵犯了您的权益,请发邮件至 [email protected],立即清除相关链接

GMT+8, 2020-7-4 07:35 , Processed in 0.111982 second(s), 23 queries .

Powered by Discuz! X3.2

© 2001-2013 Comsenz Inc.

快速回复 返回顶部 返回列表