百度云资源论坛

 找回密码
 立即注册
搜索

看不见的苏/隱形少女 Invisible.Sue.2018.1080p.BluRay.x264-UNVEiL 8.66GB

[复制链接]
百度云电影 发表于 2020-5-25 19:35:45 | 显示全部楼层 |阅读模式
帖子完整标题:看不见的苏/隱形少女 Invisible.Sue.2018.1080p.BluRay.x264-UNVEiL 8.66GB




◎译  名 看不见的苏 / 隱形少女(台)
◎片  名 Invisible Sue
◎年  代 2019
◎产  地 德国
◎类  别 剧情
◎语  言 德语
◎上映日期 2019-10-31(德国)
◎IMDb评分  4.4/10 from 269 users
◎片  长 93分钟
◎导  演 Markus Dietrich
◎编  剧 Markus Dietrich
◎主  演 吉恩·布鲁克斯 Jean Brooks
       Anna Shirin Habedank


◎标  签 德国 | 科幻 | 动作 | 2019 | 喜剧 | 青春 | 孩子 | 卢森堡

◎简  介  

  少女蘇的母親是位厲害的科學家,某天,蘇在實驗室不小心接觸母親研發的藥水後,變得能夠隱形,因為這項新的能力,本來是學校怪咖的蘇意外交到了一些朋友。然而過不久後,有人覬覦這個隱形藥水的秘密,竟然綁架了她的母親。借助隱形的能力和朋友的幫忙,她要追捕那些綁架者,並從他們手中救回母親!
Video
ID                                       : 1
Format                                   : AVC
Format/Info                              : Advanced Video Codec
Format settings                          : CABAC / 5 Ref Frames
Format settings, CABAC                   : Yes
Format settings, Reference frames        : 5 frames
Codec ID                                 : V_MPEG4/ISO/AVC
Duration                                 : 1 h 35 min
Bit rate                                 : 9 294 kb/s
Width                                    : 1 920 pixels
Height                                   : 800 pixels
Display aspect ratio                     : 2.40:1
Frame rate mode                          : Constant
Frame rate                               : 24.000 FPS
Color space                              : YUV
Chroma subsampling                       : 4:2:0
Bit depth                                : 8 bits
Scan type                                : Progressive
Bits/(Pixel*Frame)                       : 0.252
Stream size                              : 6.20 GiB (72%)
Writing library                          : x264 core 160 r3000 33f9e14
Encoding settings                        : cabac=1 / ref=5 / deblock=1:-3:-3 / analyse=0x3:0x133 / me=umh / subme=9 / psy=1 / psy_rd=1.00:0.00 / mixed_ref=1 / me_range=16 / chroma_me=1 / trellis=2 / 8x8dct=1 / cqm=0 / deadzone=21,11 / fast_pskip=0 / chroma_qp_offset=-2 / threads=25 / lookahead_threads=2 / sliced_threads=0 / nr=0 / decimate=1 / interlaced=0 / bluray_compat=0 / constrained_intra=0 / bframes=3 / b_pyramid=2 / b_adapt=2 / b_bias=0 / direct=3 / weightb=1 / open_gop=0 / weightp=2 / keyint=240 / keyint_min=24 / scenecut=40 / intra_refresh=0 / rc_lookahead=60 / rc=crf / mbtree=1 / crf=17.0 / qcomp=0.60 / qpmin=0 / qpmax=69 / qpstep=4 / ip_ratio=1.40 / aq=1:1.00
Language                                 : English
Default                                  : Yes
Forced                                   : No

Audio
ID                                       : 2
Format                                   : DTS XLL
Format/Info                              : Digital Theater Systems
Commercial name                          : DTS-HD Master Audio
Codec ID                                 : A_DTS
Duration                                 : 1 h 35 min
Bit rate mode                            : Variable
Bit rate                                 : 3 650 kb/s
Channel(s)                               : 6 channels
Channel layout                           : C L R Ls Rs LFE
Sampling rate                            : 48.0 kHz
Frame rate                               : 93.750 FPS (512 SPF)
Bit depth                                : 24 bits
Compression mode                         : Lossless
Stream size                              : 2.44 GiB (28%)
Language                                 : German
Default                                  : Yes
Forced                                   : No

Text #1
ID                                       : 3
Format                                   : UTF-8
Codec ID                                 : S_TEXT/UTF8
Codec ID/Info                            : UTF-8 Plain Text
Duration                                 : 1 h 29 min
Bit rate                                 : 52 b/s
Count of elements                        : 1095
Stream size                              : 34.7 KiB (0%)
Language                                 : English
Default                                  : Yes
Forced                                   : No

Text #2
ID                                       : 4
Format                                   : PGS
Muxing mode                              : zlib
Codec ID                                 : S_HDMV/PGS
Codec ID/Info                            : Picture based subtitle format used on BDs/HD-DVDs
Duration                                 : 1 h 29 min
Bit rate                                 : 32.3 kb/s
Count of elements                        : 2190
Stream size                              : 20.8 MiB (0%)
Language                                 : English
Default                                  : No
Forced                                   : No

Text #3
ID                                       : 5
Format                                   : PGS
Muxing mode                              : zlib
Codec ID                                 : S_HDMV/PGS
Codec ID/Info                            : Picture based subtitle format used on BDs/HD-DVDs
Duration                                 : 1 h 34 min
Bit rate                                 : 41.1 kb/s
Count of elements                        : 2534
Stream size                              : 27.8 MiB (0%)
Language                                 : German
Default                                  : No
Forced                                   : No

Menu
00:00:00.000                             : :Kapitel 01
00:12:01.000                             : :Kapitel 02
00:24:01.000                             : :Kapitel 03
00:35:45.000                             : :Kapitel 04
00:47:32.000                             : :Kapitel 05
01:00:48.000                             : :Kapitel 06
01:11:24.000                             : :Kapitel 07
01:21:35.000                             : :Kapitel 08
01:31:43.000                             : :Kapitel 09



                                                                                                                                                                                                        
                                                                                                                                                                                                                                                                                                                                                                                                                                                                                                                                                                                                                                                                                                                                                                                                                                                       12b0c04f8800137c28efc184e22b8ee1.torrent (44 KB, 下载次数: 0)

回复

使用道具 举报

小黑屋|百度云资源论坛 |网站地图

本网站所有资源来自网络,如无意中侵犯了您的权益,请发邮件至 [email protected],立即清除相关链接

GMT+8, 2020-7-4 08:06 , Processed in 0.118978 second(s), 23 queries .

Powered by Discuz! X3.2

© 2001-2013 Comsenz Inc.

快速回复 返回顶部 返回列表