百度云资源论坛

 找回密码
 立即注册
搜索

为何不去死 Why.Dont.You.Just.Die.2018.1080p.BluRay.x264-CADAVER 14.19GB

[复制链接]
百度云电影 发表于 2020-5-25 19:35:45 | 显示全部楼层 |阅读模式



◎译  名 为何不去死 / Papa, sdokhni / Why Don't You Just Die! / 岳父受死吧(台) / 睇你幾時死(港)
◎片  名 Папа, сдохни
◎年  代 2018
◎产  地 俄罗斯
◎类  别 剧情
◎语  言 俄语
◎IMDb评分  6.7/10 from 1472 users
◎片  长 100分钟
◎导  演 Kirill Sokolov
◎编  剧 Kirill Sokolov
◎主  演 亚历山大·库兹涅佐夫 Aleksandr Kuznetsov
       维塔利·哈耶夫 Vitaliy Khaev
       Evgeniya Kregzhde
       米哈伊尔·戈尔沃伊 Mikhail Gorevoy
       Yelena Shevchenko
       Igor Grabuzov
       亚历山大·亚·多莫加罗夫 Aleksandr A. Domogarov
       Ilya Gavrilenkov
       Vasiliy Kopeikin
       Ilya Kostyukov
       Fedor Starykh


◎标  签 血腥 | 俄罗斯 | ☉Cult | 荒诞 | 喜剧 | 俄罗斯电影 | 剧情 | 俄羅斯

◎简  介  

  Believe me, you have been waiting for a film like this to be on the P?FF Competition Programme for a long time. And even more so from Russia. And what a title. A slasher akin to an electric shock, the straightforward and boldfaced B-film aesthetics of which could well make the big name of this genre, Quention Tarantno himself, green with envy. This is a ‘hammer straight on the head between the eyes’ brutal bloodbath in which 29-year-old director Kirill Sokolov does not hold back in anything. And quite rightly so, why should he?
  The film takes place practically within one dwelling and starts as any other ‘normal’ film. At the request of his girlfriend, a young man turns up at the doorstep of her father one night. The girl asks him to kill her father, but her motives remain unclear. What happens next in this satirical comedy, you will have to find out at the cinema.
  The film unrolls into a spectacle characteristic of a proper splatter, something similar to the midnight hit of the previous P?FF, “Revenge”, where the viewers are proverbially doused in buckets of blood and gore to which there seems to be no end. And it’s not disgusting – it’s bloody funny! However, jokes aside, “Why Don’t You Just Die” is actually a lot more than antics and escapades. Parallels can for instance be drawn to Zvyagintsev’s “Loveless”, albeit in a different key.
  The Best Film Award from the Vyborg Film Festival may well have caused mumbles of envy at the award ceremony, but Sokolov – considered to be the successor of Aleksey Balabanov (Brother) – was the right man in the right place. In the light of Sokolov’s great ambitions, he will not be coming to P?FF for anything less than the main award of the Debut Competition Programme. Who could argue against it?
  Helmut J?nes
Video
ID                                       : 1
Format                                   : AVC
Format/Info                              : Advanced Video Codec
Format settings                          : CABAC / 5 Ref Frames
Format settings, CABAC                   : Yes
Format settings, Reference frames        : 5 frames
Codec ID                                 : V_MPEG4/ISO/AVC
Duration                                 : 1 h 38 min
Bit rate                                 : 17.1 Mb/s
Width                                    : 1 920 pixels
Height                                   : 804 pixels
Display aspect ratio                     : 2.40:1
Frame rate mode                          : Constant
Frame rate                               : 23.976 (24000/1001/189150) FPS
Color space                              : YUV
Chroma subsampling                       : 4:2:0
Bit depth                                : 8 bits
Scan type                                : Progressive
Bits/(Pixel*Frame)                       : 0.463
Stream size                              : 11.8 GiB (83%)
Writing library                          : x264 core 160 r3000 33f9e14
Encoding settings                        : cabac=1 / ref=5 / deblock=1:-3:-3 / analyse=0x3:0x133 / me=umh / subme=10 / psy=1 / psy_rd=1.20:0.00 / mixed_ref=1 / me_range=24 / chroma_me=1 / trellis=2 / 8x8dct=1 / cqm=0 / deadzone=21,11 / fast_pskip=0 / chroma_qp_offset=-2 / threads=24 / lookahead_threads=4 / sliced_threads=0 / nr=0 / decimate=0 / interlaced=0 / bluray_compat=0 / constrained_intra=0 / bframes=8 / b_pyramid=2 / b_adapt=2 / b_bias=0 / direct=3 / weightb=1 / open_gop=0 / weightp=2 / keyint=250 / keyint_min=23 / scenecut=40 / intra_refresh=0 / rc=crf / mbtree=0 / crf=18.0 / qcomp=0.60 / qpmin=0 / qpmax=69 / qpstep=4 / ip_ratio=1.40 / pb_ratio=1.30 / aq=3:0.90
Default                                  : Yes
Forced                                   : No
Color range                              : Limited
Matrix coefficients                      : BT.709

Audio
ID                                       : 2
Format                                   : DTS XLL
Format/Info                              : Digital Theater Systems
Commercial name                          : DTS-HD Master Audio
Codec ID                                 : A_DTS
Duration                                 : 1 h 38 min
Bit rate mode                            : Variable
Bit rate                                 : 3 495 kb/s
Channel(s)                               : 6 channels
Channel layout                           : C L R Ls Rs LFE
Sampling rate                            : 48.0 kHz
Frame rate                               : 93.750 FPS (512 SPF)
Bit depth                                : 24 bits
Compression mode                         : Lossless
Stream size                              : 2.40 GiB (17%)
Language                                 : Russian
Default                                  : Yes
Forced                                   : No

Text #1
ID                                       : 3
Format                                   : UTF-8
Codec ID                                 : S_TEXT/UTF8
Codec ID/Info                            : UTF-8 Plain Text
Duration                                 : 1 h 37 min
Bit rate                                 : 24 b/s
Count of elements                        : 683
Stream size                              : 17.9 KiB (0%)
Title                                    : English (Forced)
Language                                 : English
Default                                  : Yes
Forced                                   : Yes

Text #2
ID                                       : 4
Format                                   : PGS
Muxing mode                              : zlib
Codec ID                                 : S_HDMV/PGS
Codec ID/Info                            : Picture based subtitle format used on BDs/HD-DVDs
Duration                                 : 1 h 37 min
Bit rate                                 : 14.6 kb/s
Count of elements                        : 1366
Stream size                              : 10.2 MiB (0%)
Language                                 : English
Default                                  : No
Forced                                   : No

Menu
00:00:00.000                             : en:Chapter 01
00:03:30.419                             : en:Chapter 02
00:08:36.266                             : en:Chapter 03
00:14:52.517                             : en:Chapter 04
00:23:35.706                             : en:Chapter 05
00:31:22.631                             : en:Chapter 06
00:40:24.881                             : en:Chapter 07
00:46:44.719                             : en:Chapter 08
00:55:01.089                             : en:Chapter 09
01:06:53.676                             : en:Chapter 10
01:18:49.266                             : en:Chapter 11
01:26:38.693                             : en:Chapter 12



                                                                                                                                                                                                        
                                                                                                                                                                                                                                                                                                                                                                                                                                                                                                                                                                                                                                                                                                                                                                                                                                                       94b0d8c975a1683bf314818412565045.torrent (71.69 KB, 下载次数: 0)

回复

使用道具 举报

小黑屋|百度云资源论坛 |网站地图

本网站所有资源来自网络,如无意中侵犯了您的权益,请发邮件至 [email protected],立即清除相关链接

GMT+8, 2020-7-4 07:04 , Processed in 0.104543 second(s), 23 queries .

Powered by Discuz! X3.2

© 2001-2013 Comsenz Inc.

快速回复 返回顶部 返回列表