百度云资源论坛

 找回密码
 立即注册
搜索

[BD-4K] 宝贝男孩 Honey.Boy.2019.HDR.2160p.WEB.h265-WATCHER 10.02GB

[复制链接]
百度云电影 发表于 2020-5-25 18:54:38 | 显示全部楼层 |阅读模式



◎译  名 宝贝男孩 / Stamen / 乖儿子 / 宝贝童年(港) / 我的宝贝男孩(台)
◎片  名 Honey Boy
◎年  代 2019
◎产  地 美国
◎类  别 剧情
◎语  言 英语
◎上映日期 2019-01-25(圣丹斯电影节) / 2019-11-27(美国)
◎IMDb评分  7.3/10 from 16832 users
◎片  长 93分钟
◎导  演 阿尔玛·哈勒 Alma Har'el
◎编  剧 希亚·拉博夫 Shia LaBeouf
◎主  演 希亚·拉博夫 Shia LaBeouf
       卢卡斯·赫奇斯 Lucas Hedges
       诺亚·尤佩 Noah Jupe
       拜伦·鲍尔斯 Byron Bowers
       劳拉·圣吉亚科莫 Laura San Giacomo
       小枝女孩 FKA twigs
       娜塔莎·雷昂 Natasha Lyonne
       麦卡·梦露 Maika Monroe
       小克利夫顿·克林斯 Clifton Collins Jr.
       马里奥·庞塞 Mario Ponce
       马丁·斯塔尔 Martin Starr
       海莉·桑切斯 Haylee Sanchez
       乔凡尼·洛佩斯 Giovanni Lopes
       多里安·布朗 Dorian Brown Pham
       格蕾塔·荣格 Greta Jung
       克雷格·斯塔克 Craig Stark
       格雷厄姆·克拉克 Graham Clarke
       莱娜·查韦斯 Leana Chavez
       鲍莉娜·布格姆布 Paulina Bugembe
       本杰明·马卡比 Benjamin Maccabee
       查拉·萨维诺 Chala Savino
       阿尔·伯克 Al Burke
       路德维格·曼努基连 Ludwig Manukian
       桑德拉·罗斯科 Sandra Rosko
       布莱恩·纳什 Bryan Nash
       金斯顿·凡尔内斯 Kingston Vernes


◎标  签 美国 | 2019 | 剧情 | 家庭 | 成长 | 父子 | 传记 | 独立

◎简  介  

  12岁的Otis是一名在好莱坞冉冉升起的电视新星。当他的事业开始风生水起时,他曾扮过马戏小丑的父亲回到他身边,成为他的监护人。在片场之外的时间里,Otis与他的父亲一起住在一家位于城市边缘的汽车旅馆,忍受着傲慢霸道的父亲的虐待。《宝贝男孩》跟随着两条时间线,展现了一对父子之间充满争议的关系以及十年来两人试图修复心障的历程。
  这是编剧/主演Shia LaBeouf与导演Alma Har'el的又一次令人惊叹的合作,描绘出了一幅痛苦却又给人以启迪的成长自画像。Shia LaBeouf的剧本深入潜进Otis的精神世界,挖掘出虐待给他留下的伤痕、令人不快的真相;而Alma贡献出了激动人心、个人风格强烈的导演技巧,同时也始终没有忘记影片温暖动人的内核。两位出色的年轻演员——Noah Jupe和Lucas Hedges——分别扮演两个不同年龄段的Otis,他们充满张力的表演塑造出了一个有力而质朴的角色,他的感情被愤怒和宽恕的渴望驱使着——这两种感情看似自相矛盾,却又真实共存。

◎获奖情况  

  第35届圣丹斯电影节(2019)
  评审团大奖 剧情片(提名) 阿尔玛·哈勒
  评审团特别奖 剧情片

  第72届美国导演工会奖(2020)
  最佳新人导演奖 阿尔玛·哈勒

  第34届美国摄影协会奖(2020)
  聚光灯奖(提名) 娜塔莎·布雷尔

  第25届美国评论家选择电影奖(2020)
  最佳青少年演员(提名) 诺亚·尤佩

  第35届美国独立精神奖(2020)
  最佳导演(提名) 阿尔玛·哈勒
  最佳男配角(提名) 诺亚·尤佩 / 希亚·拉博夫
  最佳摄影(提名)

  第29届哥谭独立电影奖(2019)
  年度突破演员(提名) 诺亚·尤佩

  第23届好莱坞电影奖(2019)
  年度突破编剧 希亚·拉博夫

  第40届伦敦影评人协会奖(2020)
  年度男配角(提名) 希亚·拉博夫
  年度英国/爱尔兰小演员(提名) 诺亚·尤佩

  第32届芝加哥影评人协会奖(2019)
  最佳男配角(提名) 希亚·拉博夫
  最具突破导演(米洛斯·斯泰利克奖)(提名) 阿尔玛·哈勒
Video
ID                                       : 1
Format                                   : HEVC
HDR format                               : SMPTE ST 2094 App 4, Version 0
Codec ID                                 : V_MPEGH/ISO/HEVC
Duration                                 : 1 h 34 min
Bit rate                                 : 14.6 Mb/s
Width                                    : 3 840 pixels
Height                                   : 1 600 pixels
Display aspect ratio                     : 2.40:1
Frame rate mode                          : Constant
Frame rate                               : 23.976 (24000/1001/189150) FPS
Standard                                 : NTSC
Color space                              : YUV
Chroma subsampling                       : 4:2:0 (Type 2)
Bit depth                                : 10 bits
Bits/(Pixel*Frame)                       : 0.099
Stream size                              : 9.59 GiB (96%)
Default                                  : Yes
Forced                                   : No
Color range                              : Limited
Color primaries                          : BT.2020
Transfer characteristics                 : PQ
Matrix coefficients                      : BT.2020 non-constant
Mastering display color primaries        : Display P3
Mastering display luminance              : min: 0.0001 cd/m2, max: 1000 cd/m2
Maximum Content Light Level              : 163 cd/m2
Maximum Frame-Average Light Level        : 771 cd/m2

Audio
ID                                       : 2
Format                                   : E-AC-3
Format/Info                              : Enhanced AC-3
Commercial name                          : Dolby Digital Plus
Codec ID                                 : A_EAC3
Duration                                 : 1 h 34 min
Bit rate mode                            : Constant
Bit rate                                 : 640 kb/s
Channel(s)                               : 6 channels
Channel layout                           : L R C LFE Ls Rs
Sampling rate                            : 48.0 kHz
Frame rate                               : 31.250 FPS (1536 SPF)
Compression mode                         : Lossy
Stream size                              : 431 MiB (4%)
Title                                    : English
Language                                 : English
Service kind                             : Complete Main
Default                                  : Yes
Forced                                   : No

Text
ID                                       : 3
Format                                   : UTF-8
Codec ID                                 : S_TEXT/UTF8
Codec ID/Info                            : UTF-8 Plain Text
Duration                                 : 1 h 33 min
Bit rate                                 : 76 b/s
Count of elements                        : 1734
Stream size                              : 52.9 KiB (0%)
Title                                    : English [SDH]
Language                                 : English
Default                                  : No
Forced                                   : No

Menu
00:00:00.000                             : en:Studio Logos
00:00:44.000                             : en:A day in the life of a stunt man
00:04:26.000                             : en:Entering rehab
00:06:04.000                             : en:Title Sequence
00:06:07.000                             : en:Growing up in LA
00:10:22.000                             : en:Father son bonding
00:20:23.000                             : en:Adjusting to rehab
00:24:07.000                             : en:Otis takes care of himself
00:30:29.000                             : en:James meets Tom
00:36:25.000                             : enool therapy
00:39:48.000                             : enife in recovery
00:50:30.000                             : enifferent therapy techniques
00:58:43.000                             : en:A dynamic power struggle
01:09:16.000                             : en:Confronting trauma
01:15:20.000                             : en:A fresh start
01:27:24.000                             : en:End Credits



                                                                                                                                                                                                        
                                                                                                                                                                                                                                                                                                                                                                                                                                                                                                                                                                                                                                                                                                                                                                                                                                                       6596b80572dab886cb6aea007ce9337b.torrent (50.75 KB, 下载次数: 0)

回复

使用道具 举报

小黑屋|百度云资源论坛 |网站地图

本网站所有资源来自网络,如无意中侵犯了您的权益,请发邮件至 [email protected],立即清除相关链接

GMT+8, 2020-7-13 00:22 , Processed in 0.103492 second(s), 23 queries .

Powered by Discuz! X3.2

© 2001-2013 Comsenz Inc.

快速回复 返回顶部 返回列表