百度云资源论坛

 找回密码
 立即注册
搜索

奇妙的家族 Zombie.for.Sale.2019.720p.BluRay.x264-GHOULS 6.88GB

[复制链接]
百度云资源 发表于 2020-8-16 07:12:25 | 显示全部楼层 |阅读模式
帖子完整标题:奇妙的家族 Zombie.for.Sale.2019.720p.BluRay.x264-GHOULS 6.88GB




◎译  名 奇妙的家族 / The Odd Family: Zombie On Sale / Zombie for Sale / 僵尸家族 / 感染家族(日) / 抢钱大尸杀(港 / 台)
◎片  名 ??? ??
◎年  代 2019
◎产  地 韩国
◎类  别 喜剧 / 恐怖
◎语  言 韩语
◎上映日期 2019-02-13(韩国)
◎IMDb评分  6.5/10 from 621 users
◎片  长 112分钟
◎导  演 李珉才 Lee Min-jae
◎编  剧 李珉才 Min-jae Lee
◎主  演 郑在咏 Jae-yeong Jeong
       金南佶 Nam-gil Kim
       严志媛 Ji-won Uhm
       李秀卿 Soo-kyung Lee
       郑家兰 JUNG Garam
       朴仁焕 In-hwan Park
       申正根 Jeong-geun Sin
       吴义植 Eui-sik Oh
       金基天 Ki-cheon Kim
       李东熙 Dong-hee Lee
       具本雄 Bon-woong Koo
       柳淳哲 Sun-cheol Yu
       崔钟律 Jong-ryeol Choi
       李英锡 Yeong-seok Lee
       李晟宇 Sung-woo Lee
       李佳英 Ga-kyung Lee
       刘炳洙 Byung-sun Yoo
       吴顺泰 Soon-tae Oh
       金妍贞 Yeon-jung Kim
       郑宇荣 Woo-yeong Jeong
       高东亨 Dong-hyeong Go
       张恩钟 Eun-chong Jang
       纪焕 Ji Hwan
       崔英民 Young-min Choi
       蔡恩珠 Eun-joo Chae
       金昌朱 Chang-jo Kim
       全裴修 Bae-soo Jeon


◎标  签 喜剧 | 丧尸 | 韩国 | 韩国电影 | 僵尸 | 搞笑 | 2019 | 恐怖

◎简  介   

  《奇妙的家族》主要讲述的是因某天突然出现的神秘家伙令充满个性的一家人与安静的乡下村庄变得一片混乱的异想天开的喜剧故事。
Video
ID                                       : 1
Format                                   : AVC
Format/Info                              : Advanced Video Codec
Format settings                          : CABAC / 12 Ref Frames
Format settings, CABAC                   : Yes
Format settings, Reference frames        : 12 frames
Codec ID                                 : V_MPEG4/ISO/AVC
Duration                                 : 1 h 51 min
Bit rate                                 : 8 016 kb/s
Width                                    : 1 280 pixels
Height                                   : 538 pixels
Display aspect ratio                     : 2.40:1
Frame rate mode                          : Constant
Frame rate                               : 23.976 (24000/1001/189150) FPS
Color space                              : YUV
Chroma subsampling                       : 4:2:0
Bit depth                                : 8 bits
Scan type                                : Progressive
Bits/(Pixel*Frame)                       : 0.486
Stream size                              : 6.27 GiB (91%)
Writing library                          : x264 core 160 r3007 235ce61
Encoding settings                        : cabac=1 / ref=12 / deblock=1:-3:-3 / analyse=0x3:0x133 / me=umh / subme=10 / psy=1 / psy_rd=1.20:0.00 / mixed_ref=1 / me_range=24 / chroma_me=1 / trellis=2 / 8x8dct=1 / cqm=0 / deadzone=21,11 / fast_pskip=0 / chroma_qp_offset=-2 / threads=17 / lookahead_threads=2 / sliced_threads=0 / nr=0 / decimate=0 / interlaced=0 / bluray_compat=0 / constrained_intra=0 / bframes=8 / b_pyramid=2 / b_adapt=2 / b_bias=0 / direct=3 / weightb=1 / open_gop=0 / weightp=2 / keyint=250 / keyint_min=23 / scenecut=40 / intra_refresh=0 / rc=crf / mbtree=0 / crf=16.0 / qcomp=0.60 / qpmin=0 / qpmax=69 / qpstep=4 / ip_ratio=1.40 / pb_ratio=1.30 / aq=3:0.90
Default                                  : Yes
Forced                                   : No
Color range                              : Limited
Matrix coefficients                      : BT.709

Audio #1
ID                                       : 2
Format                                   : AC-3
Format/Info                              : Audio Coding 3
Commercial name                          : Dolby Digital
Codec ID                                 : A_AC3
Duration                                 : 1 h 51 min
Bit rate mode                            : Constant
Bit rate                                 : 640 kb/s
Channel(s)                               : 6 channels
Channel layout                           : L R C LFE Ls Rs
Sampling rate                            : 48.0 kHz
Frame rate                               : 31.250 FPS (1536 SPF)
Bit depth                                : 16 bits
Compression mode                         : Lossy
Stream size                              : 513 MiB (7%)
Language                                 : Korean
Service kind                             : Complete Main
Default                                  : Yes
Forced                                   : No

Audio #2
ID                                       : 3
Format                                   : AAC LC
Format/Info                              : Advanced Audio Codec Low Complexity
Codec ID                                 : A_AAC-2
Duration                                 : 1 h 51 min
Bit rate                                 : 128 kb/s
Channel(s)                               : 2 channels
Channel layout                           : L R
Sampling rate                            : 48.0 kHz
Frame rate                               : 46.875 FPS (1024 SPF)
Compression mode                         : Lossy
Delay relative to video                  : 20 ms
Stream size                              : 103 MiB (1%)
Title                                    : Commentary
Language                                 : English
Default                                  : No
Forced                                   : No

Text #1
ID                                       : 4
Format                                   : UTF-8
Codec ID                                 : S_TEXT/UTF8
Codec ID/Info                            : UTF-8 Plain Text
Duration                                 : 1 h 47 min
Bit rate                                 : 37 b/s
Count of elements                        : 1233
Stream size                              : 29.6 KiB (0%)
Title                                    : English (Forced)
Language                                 : English
Default                                  : Yes
Forced                                   : Yes

Text #2
ID                                       : 5
Format                                   : PGS
Muxing mode                              : zlib
Codec ID                                 : S_HDMV/PGS
Codec ID/Info                            : Picture based subtitle format used on BDs/HD-DVDs
Duration                                 : 1 h 47 min
Bit rate                                 : 22.6 kb/s
Count of elements                        : 2466
Stream size                              : 17.3 MiB (0%)
Language                                 : English
Default                                  : No
Forced                                   : No

Menu
00:00:00.000                             : en:Chapter 01
00:11:27.270                             : en:Chapter 02
00:19:32.213                             : en:Chapter 03
00:27:43.328                             : en:Chapter 04
00:38:55.166                             : en:Chapter 05
00:46:07.682                             : en:Chapter 06
00:56:04.194                             : en:Chapter 07
01:05:20.667                             : en:Chapter 08
01:13:29.447                             : en:Chapter 09
01:24:14.925                             : en:Chapter 10
01:33:22.639                             : en:Chapter 11
01:42:50.915                             : en:Chapter 12




                                                                                                                                                                                                        
                                                                                                                                                                                                                                                                                                                                                                                                                                                                                                                                                                                                                                                                                                                                                                                                                                                       e7543a93f80e0b2e969aed8cdc97a1f0.zip (35.08 KB, 下载次数: 0)

回复

使用道具 举报

小黑屋|百度云资源论坛 |网站地图

本网站所有资源来自网络,如无意中侵犯了您的权益,请发邮件至 [email protected],立即清除相关链接

GMT+8, 2020-11-24 14:29 , Processed in 0.104002 second(s), 23 queries .

Powered by Discuz! X3.2

© 2001-2013 Comsenz Inc.

快速回复 返回顶部 返回列表