百度云资源论坛

 找回密码
 立即注册
搜索

最终判决 End.of.Sentence.2019.720p.BluRay.x264-YOL0W 5.11GB

[复制链接]
百度云电影 发表于 2020-8-16 07:12:25 | 显示全部楼层 |阅读模式
帖子完整标题:最终判决 End.of.Sentence.2019.720p.BluRay.x264-YOL0W 5.11GB




◎译  名 最终判决
◎片  名 End of Sentence
◎年  代 2019
◎产  地 冰岛 / 爱尔兰 / 美国
◎类  别 剧情
◎语  言 英语
◎上映日期 2019-06-28(爱丁堡电影节) / 2020-05-29(美国网络)
◎IMDb评分  7.6/10 from 1018 users
◎导  演 Elfar Adalsteins
◎编  剧 Michael Armbruster
◎主  演 约翰·浩克斯 John Hawkes
       罗根·勒曼 Logan Lerman
       莎拉·伯格 Sarah Bolger
       奥拉维尔·达里·奥拉夫松 ólafur Darri ólafsson
       Christopher Allen
       Zylan Brooks
       艾米·德·毕罕 Amy De Bhrún
       Kyle Hancock
       Andrea Irvine
       Shaw Jones
       Robert Kiernan
       肖恩·马洪 Sean Mahon
       杰克·麦克维 Jack McEvoy
       Clare Mullen
       Aoibhin Murphy


◎标  签 LoganLerman | 2019 | 冰岛 | 公路 | 美国 | 罗根·勒曼 | 电影 | 爱尔兰

◎简  介   

  故事讲述一对父子为纪念孩子故去的妈妈,散去她的骨灰,不情愿地展开了去爱尔兰的公路旅行。期间,本就尴尬的二人更是被迫与一位有趣的爱尔兰驴友(伯格饰)共处。
Video
ID                                       : 1
Format                                   : AVC
Format/Info                              : Advanced Video Codec
Format settings                          : CABAC / 8 Ref Frames
Format settings, CABAC                   : Yes
Format settings, Reference frames        : 8 frames
Codec ID                                 : V_MPEG4/ISO/AVC
Duration                                 : 1 h 36 min
Bit rate                                 : 6 944 kb/s
Width                                    : 1 280 pixels
Height                                   : 536 pixels
Display aspect ratio                     : 2.40:1
Frame rate mode                          : Constant
Frame rate                               : 23.976 (24000/1001/189150) FPS
Color space                              : YUV
Chroma subsampling                       : 4:2:0
Bit depth                                : 8 bits
Scan type                                : Progressive
Bits/(Pixel*Frame)                       : 0.422
Stream size                              : 4.66 GiB (91%)
Writing library                          : x264 core 161 r3015 4c2aafd
Encoding settings                        : cabac=1 / ref=8 / deblock=1:-3:-3 / analyse=0x3:0x133 / me=umh / subme=9 / psy=1 / psy_rd=1.00:0.00 / mixed_ref=1 / me_range=24 / chroma_me=1 / trellis=2 / 8x8dct=1 / cqm=0 / deadzone=21,11 / fast_pskip=0 / chroma_qp_offset=-2 / threads=17 / lookahead_threads=1 / sliced_threads=0 / nr=0 / decimate=1 / interlaced=0 / bluray_compat=0 / constrained_intra=0 / bframes=3 / b_pyramid=2 / b_adapt=2 / b_bias=0 / direct=3 / weightb=1 / open_gop=0 / weightp=2 / keyint=250 / keyint_min=23 / scenecut=40 / intra_refresh=0 / rc=crf / mbtree=0 / crf=15.6 / qcomp=0.60 / qpmin=0 / qpmax=69 / qpstep=4 / ip_ratio=1.40 / pb_ratio=1.30 / aq=3:0.80
Default                                  : Yes
Forced                                   : No
Color range                              : Limited
Matrix coefficients                      : BT.709

Audio
ID                                       : 2
Format                                   : AC-3
Format/Info                              : Audio Coding 3
Commercial name                          : Dolby Digital
Codec ID                                 : A_AC3
Duration                                 : 1 h 36 min
Bit rate mode                            : Constant
Bit rate                                 : 640 kb/s
Channel(s)                               : 6 channels
Channel layout                           : L R C LFE Ls Rs
Sampling rate                            : 48.0 kHz
Frame rate                               : 31.250 FPS (1536 SPF)
Bit depth                                : 16 bits
Compression mode                         : Lossy
Stream size                              : 440 MiB (8%)
Title                                    : English
Language                                 : English
Service kind                             : Complete Main
Default                                  : Yes
Forced                                   : No

Text
ID                                       : 3
Format                                   : PGS
Muxing mode                              : zlib
Codec ID                                 : S_HDMV/PGS
Codec ID/Info                            : Picture based subtitle format used on BDs/HD-DVDs
Duration                                 : 1 h 36 min
Bit rate                                 : 30.4 kb/s
Count of elements                        : 2542
Stream size                              : 20.9 MiB (0%)
Language                                 : English
Default                                  : No
Forced                                   : No

Menu
00:00:00.000                             : en:Chapter 01
00:08:05.068                             : en:Chapter 02
00:19:03.934                             : en:Chapter 03
00:30:11.810                             : en:Chapter 04
00:40:02.233                             : en:Chapter 05
00:50:15.596                             : en:Chapter 06
01:00:10.774                             : en:Chapter 07
01:10:04.033                             : en:Chapter 08
01:19:32.768                             : en:Chapter 09
01:30:11.364                             : en:Chapter 10




                                                                                                                                                                                                        
                                                               ec2a8d936932cfaf81de99b3ba625338.zip (26.22 KB, 下载次数: 0)

回复

使用道具 举报

小黑屋|百度云资源论坛 |网站地图

本网站所有资源来自网络,如无意中侵犯了您的权益,请发邮件至 [email protected],立即清除相关链接

GMT+8, 2020-11-24 14:02 , Processed in 0.115336 second(s), 23 queries .

Powered by Discuz! X3.2

© 2001-2013 Comsenz Inc.

快速回复 返回顶部 返回列表