百度云资源论坛

 找回密码
 立即注册
搜索

装弹暴击/麦克斯重新装弹和地下爆炸机 Max.Reload.and.the.Nethe...

[复制链接]
百度云电影 发表于 2020-8-16 07:12:25 | 显示全部楼层 |阅读模式
帖子完整标题:装弹暴击/麦克斯重新装弹和地下爆炸机 Max.Reload.and.the.Nether.Blasters.2020.720p.BluRay.x264-WUTANG 4.45GB




◎译  名 装弹暴击 / 麦克斯重新装弹和地下爆炸机
◎片  名 Max Reload and the Nether Blasters
◎年  代 2018
◎产  地 美国
◎类  别 冒险
◎语  言 英语
◎导  演 Scott Conditt / Jeremy Tremp
◎编  剧 Jeremy Tremp / Scott Conditt
◎主  演 凯文·史密斯 Kevin Smith
       马丁·科夫 Martin Kove
       林·沙烨 Lin Shaye
       约瑟夫·D·雷特曼 Joseph D. Reitman
       格雷戈·格伦伯格 Greg Grunberg
       乔伊·摩根 Joey Morgan


◎简  介   

  A small town video game store clerk must go from zero to hero after accidentally unleashing the forces of evil from a cursed Colecovision game... Max Jenkins' gaming fantasies collides with reality when a legendary "lost" installment of the Nether Game series appears on the store counter of his workplace, Fallout Games. Unbeknownst to Max, the game bears a "Curse of The Ages", and in playing it, he has just unlocked the Nether, an ancient malevolent force of evil from the cartridge, upon his small hometown. Along with a mysterious masked man and his two best friends, Liz and Reggie, Max must figure out how to beat the Nether at it's own game before it's Game Over for humanity.
Video
ID                                       : 1
Format                                   : AVC
Format/Info                              : Advanced Video Codec
Format settings                          : CABAC / 8 Ref Frames
Format settings, CABAC                   : Yes
Format settings, Reference frames        : 8 frames
Codec ID                                 : V_MPEG4/ISO/AVC
Duration                                 : 1 h 40 min
Bit rate                                 : 5 619 kb/s
Width                                    : 1 280 pixels
Height                                   : 534 pixels
Display aspect ratio                     : 2.40:1
Frame rate mode                          : Constant
Frame rate                               : 23.976 (24000/1001/189150) FPS
Color space                              : YUV
Chroma subsampling                       : 4:2:0
Bit depth                                : 8 bits
Scan type                                : Progressive
Bits/(Pixel*Frame)                       : 0.343
Stream size                              : 3.96 GiB (89%)
Writing library                          : x264 core 161 r3018 db0d417
Encoding settings                        : cabac=1 / ref=8 / deblock=1:-3:-3 / analyse=0x3:0x133 / me=umh / subme=9 / psy=1 / psy_rd=1.00:0.00 / mixed_ref=1 / me_range=24 / chroma_me=1 / trellis=2 / 8x8dct=1 / cqm=0 / deadzone=21,11 / fast_pskip=0 / chroma_qp_offset=-2 / threads=17 / lookahead_threads=2 / sliced_threads=0 / nr=0 / decimate=1 / interlaced=0 / bluray_compat=0 / constrained_intra=0 / bframes=8 / b_pyramid=2 / b_adapt=2 / b_bias=0 / direct=3 / weightb=1 / open_gop=0 / weightp=2 / keyint=250 / keyint_min=23 / scenecut=40 / intra_refresh=0 / rc=crf / mbtree=0 / crf=16.5 / qcomp=0.60 / qpmin=0 / qpmax=69 / qpstep=4 / ip_ratio=1.40 / pb_ratio=1.30 / aq=3:0.90
Default                                  : Yes
Forced                                   : No
Color range                              : Limited
Matrix coefficients                      : BT.709

Audio #1
ID                                       : 2
Format                                   : FLAC
Format/Info                              : Free Lossless Audio Codec
Codec ID                                 : A_FLAC
Duration                                 : 1 h 40 min
Bit rate mode                            : Variable
Bit rate                                 : 598 kb/s
Channel(s)                               : 2 channels
Channel layout                           : L R
Sampling rate                            : 48.0 kHz
Frame rate                               : 11.719 FPS (4096 SPF)
Bit depth                                : 16 bits
Compression mode                         : Lossless
Stream size                              : 431 MiB (9%)
Title                                    : English
Writing library                          : libFLAC 1.2.1 (UTC 2007-09-17)
Language                                 : English
Default                                  : Yes
Forced                                   : No

Audio #2
ID                                       : 3
Format                                   : AAC LC
Format/Info                              : Advanced Audio Codec Low Complexity
Codec ID                                 : A_AAC-2
Duration                                 : 1 h 33 min
Bit rate                                 : 90.5 kb/s
Channel(s)                               : 2 channels
Channel layout                           : L R
Sampling rate                            : 48.0 kHz
Frame rate                               : 46.875 FPS (1024 SPF)
Compression mode                         : Lossy
Delay relative to video                  : 9 ms
Stream size                              : 60.4 MiB (1%)
Title                                    : Directors Commentary
Language                                 : English
Default                                  : No
Forced                                   : No

Text
ID                                       : 4
Format                                   : PGS
Muxing mode                              : zlib
Codec ID                                 : S_HDMV/PGS
Codec ID/Info                            : Picture based subtitle format used on BDs/HD-DVDs
Duration                                 : 1 h 40 min
Bit rate                                 : 33.5 kb/s
Count of elements                        : 5112
Stream size                              : 24.2 MiB (1%)
Language                                 : English
Default                                  : No
Forced                                   : No

Menu
00:00:00.000                             : en:Chapter 01
00:03:07.270                             : en:Chapter 02
00:07:57.686                             : en:Chapter 03
00:10:44.394                             : en:Chapter 04
00:12:57.318                             : en:Chapter 05
00:14:24.906                             : en:Chapter 06
00:19:02.475                             : en:Chapter 07
00:20:21.053                             : en:Chapter 08
00:23:40.836                             : en:Chapter 09
00:26:23.582                             : en:Chapter 10
00:28:00.262                             : en:Chapter 11
00:34:14.469                             : en:Chapter 12
00:38:22.050                             : en:Chapter 13
00:42:02.270                             : en:Chapter 14
00:44:43.264                             : en:Chapter 15
00:52:02.494                             : en:Chapter 16
00:55:15.687                             : en:Chapter 17
00:59:21.099                             : en:Chapter 18
01:03:30.724                             : en:Chapter 19
01:09:23.159                             : en:Chapter 20
01:13:47.298                             : en:Chapter 21
01:21:41.563                             : en:Chapter 22
01:25:25.954                             : en:Chapter 23
01:28:46.863                             : en:Chapter 24






04bed0eb9a388834f9d433ff6bd1eab8.zip (46 KB, 下载次数: 0)

回复

使用道具 举报

小黑屋|百度云资源论坛 |网站地图

本网站所有资源来自网络,如无意中侵犯了您的权益,请发邮件至 [email protected],立即清除相关链接

GMT+8, 2020-12-4 03:46 , Processed in 0.102238 second(s), 23 queries .

Powered by Discuz! X3.2

© 2001-2013 Comsenz Inc.

快速回复 返回顶部 返回列表