百度云资源论坛

 找回密码
 立即注册
搜索

宇杀员 Assassinaut.2019.720p.BluRay.x264-JustWatch 1.65GB

[复制链接]
百度云电影 发表于 2020-8-16 07:12:25 | 显示全部楼层 |阅读模式
帖子完整标题:宇杀员 Assassinaut.2019.720p.BluRay.x264-JustWatch 1.65GB




◎译  名 宇杀员
◎片  名 Assassinaut
◎年  代 2019
◎产  地 美国
◎类  别 科幻 / 恐怖
◎语  言 英语
◎上映日期 2019-07-30(美国)
◎IMDb评分  4.4/10 from 407 users/
◎片  长 83分钟
◎导  演 Drew Bolduc
◎编  剧 Drew Bolduc
◎主  演 Shannon Hutchinson
       Vito Trigo
       Jasmina Parent


◎标  签 科幻 | 美国 | 惊悚 | 2019 | 少年 | 美国电影 | 浪费时间 | 恐怖

◎简  介   

  In the near future, aliens have invaded Earth and declared a galactic war resulting in thousands of human casualties. To save Earth, a team of four teenage astronauts brave the alien wilderness of a distant planet to stop an assassin from changing the course of history forever.
Video
ID                                       : 1
Format                                   : AVC
Format/Info                              : Advanced Video Codec
Format settings                          : CABAC / 8 Ref Frames
Format settings, CABAC                   : Yes
Format settings, Reference frames        : 8 frames
Codec ID                                 : V_MPEG4/ISO/AVC
Duration                                 : 1 h 22 min
Bit rate                                 : 2 205 kb/s
Width                                    : 1 280 pixels
Height                                   : 538 pixels
Display aspect ratio                     : 2.40:1
Frame rate mode                          : Constant
Frame rate                               : 23.976 (24000/1001/189150) FPS
Color space                              : YUV
Chroma subsampling                       : 4:2:0
Bit depth                                : 8 bits
Scan type                                : Progressive
Bits/(Pixel*Frame)                       : 0.134
Stream size                              : 1.28 GiB (77%)
Writing library                          : x264 core 161 r3018 db0d417
Encoding settings                        : cabac=1 / ref=8 / deblock=1:-3:-3 / analyse=0x3:0x133 / me=umh / subme=9 / psy=1 / psy_rd=1.00:0.00 / mixed_ref=1 / me_range=16 / chroma_me=1 / trellis=2 / 8x8dct=1 / cqm=0 / deadzone=21,11 / fast_pskip=0 / chroma_qp_offset=-2 / threads=17 / lookahead_threads=1 / sliced_threads=0 / nr=0 / decimate=1 / interlaced=0 / bluray_compat=0 / constrained_intra=0 / bframes=3 / b_pyramid=2 / b_adapt=2 / b_bias=0 / direct=3 / weightb=1 / open_gop=0 / weightp=2 / keyint=250 / keyint_min=23 / scenecut=40 / intra_refresh=0 / rc_lookahead=60 / rc=crf / mbtree=1 / crf=17.0 / qcomp=0.60 / qpmin=0 / qpmax=69 / qpstep=4 / ip_ratio=1.40 / aq=1:1.00
Language                                 : English
Default                                  : Yes
Forced                                   : No

Audio
ID                                       : 2
Format                                   : AC-3
Format/Info                              : Audio Coding 3
Commercial name                          : Dolby Digital
Codec ID                                 : A_AC3
Duration                                 : 1 h 22 min
Bit rate mode                            : Constant
Bit rate                                 : 640 kb/s
Channel(s)                               : 6 channels
Channel layout                           : L R C LFE Ls Rs
Sampling rate                            : 48.0 kHz
Frame rate                               : 31.250 FPS (1536 SPF)
Bit depth                                : 16 bits
Compression mode                         : Lossy
Stream size                              : 380 MiB (22%)
Language                                 : English
Service kind                             : Complete Main
Default                                  : Yes
Forced                                   : No

Text
ID                                       : 3
Format                                   : PGS
Muxing mode                              : zlib
Codec ID                                 : S_HDMV/PGS
Codec ID/Info                            : Picture based subtitle format used on BDs/HD-DVDs
Duration                                 : 1 h 12 min
Bit rate                                 : 14.2 kb/s
Count of elements                        : 937
Stream size                              : 7.37 MiB (0%)
Language                                 : German
Default                                  : No
Forced                                   : No

Menu
00:00:00.000                             : :Kapitel 01
00:04:36.526                             : :Kapitel 02
00:11:38.781                             : :Kapitel 03
00:18:30.860                             : :Kapitel 04
00:24:11.617                             : :Kapitel 05
00:31:11.703                             : :Kapitel 06
00:41:24.399                             : :Kapitel 07
00:48:25.069                             : :Kapitel 08
00:55:11.767                             : :Kapitel 09
01:04:24.402                             : :Kapitel 10
01:11:43.841                             : :Kapitel 11
01:18:18.027                             : :Kapitel 12





8faadeb1d2aab4d3540d10ec849774f4.zip (17.98 KB, 下载次数: 0)

回复

使用道具 举报

小黑屋|百度云资源论坛 |网站地图

本网站所有资源来自网络,如无意中侵犯了您的权益,请发邮件至 [email protected],立即清除相关链接

GMT+8, 2020-9-27 09:41 , Processed in 0.099405 second(s), 23 queries .

Powered by Discuz! X3.2

© 2001-2013 Comsenz Inc.

快速回复 返回顶部 返回列表