百度云资源论坛

 找回密码
 立即注册
搜索

我是复仇者2 I.Am.Vengeance.Retaliation.2020.720p.BluRay.x264-YOL0W 3.43GB

[复制链接]
百度云电影 发表于 2020-8-16 07:12:25 | 显示全部楼层 |阅读模式
帖子完整标题:我是复仇者2 I.Am.Vengeance.Retaliation.2020.720p.BluRay.x264-YOL0W 3.43GB




◎译  名 我是复仇者2 / Vengeance 2
◎片  名 I Am Vengeance: Retaliation
◎年  代 2019
◎产  地 美国
◎类  别 动作
◎语  言 英语
◎上映日期 2020-06-19(美国)
◎IMDb评分  3.6/10 from 235 users
◎片  长 90分钟
◎导  演 Ross Boyask
◎编  剧 Ross Boyask
◎主  演 维尼·琼斯 Vinnie Jones
       斯图·班尼特 Stu Bennett
       让-保罗·李 Jean-Paul Ly
       杰西卡·简·克莱蒙特 Jessica Jane Clement
       李·查尔斯 Lee Charles
       宾利·卡鲁 Bentley Kalu
       Katrina Durden
       David Schaal
       Josh Myers
       Joe Egan
       Mark Griffin
       Jennifer Lee Moon
       Darren Burridge
       Matt Routledge


◎标  签 美国 | 2020

◎简  介   

  Former special-forces soldier John Gold is given the opportunity to bring Sean Teague - the man who betrayed his team on their final mission in Eastern Europe several years ago - to justice. Gold would cheerfully see Teague dead, but he is convinced to help transport him to a military prison to pay for his crimes. Along the way, Gold will have to fight off Teague's team who are attempting to extract him, as well as a sniper seemingly hell-bent on killing Teague before he can be secured.
Video
ID                                       : 1
Format                                   : AVC
Format/Info                              : Advanced Video Codec
Format settings                          : CABAC / 8 Ref Frames
Format settings, CABAC                   : Yes
Format settings, Reference frames        : 8 frames
Codec ID                                 : V_MPEG4/ISO/AVC
Duration                                 : 1 h 22 min
Bit rate                                 : 5 180 kb/s
Width                                    : 1 280 pixels
Height                                   : 544 pixels
Display aspect ratio                     : 2.35:1
Frame rate mode                          : Constant
Frame rate                               : 23.976 (24000/1001/189150) FPS
Color space                              : YUV
Chroma subsampling                       : 4:2:0
Bit depth                                : 8 bits
Scan type                                : Progressive
Bits/(Pixel*Frame)                       : 0.310
Stream size                              : 2.98 GiB (87%)
Writing library                          : x264 core 161 r3018 db0d417
Encoding settings                        : cabac=1 / ref=8 / deblock=1:-3:-3 / analyse=0x3:0x133 / me=umh / subme=9 / psy=1 / psy_rd=1.00:0.00 / mixed_ref=1 / me_range=16 / chroma_me=1 / trellis=2 / 8x8dct=1 / cqm=0 / deadzone=21,11 / fast_pskip=0 / chroma_qp_offset=-2 / threads=16 / lookahead_threads=2 / sliced_threads=0 / nr=0 / decimate=0 / interlaced=0 / bluray_compat=0 / constrained_intra=0 / bframes=8 / b_pyramid=2 / b_adapt=2 / b_bias=0 / direct=3 / weightb=1 / open_gop=0 / weightp=2 / keyint=250 / keyint_min=23 / scenecut=40 / intra_refresh=0 / rc=crf / mbtree=0 / crf=15.0 / qcomp=0.60 / qpmin=0 / qpmax=69 / qpstep=4 / ip_ratio=1.40 / pb_ratio=1.30 / aq=3:0.80
Language                                 : English
Default                                  : Yes
Forced                                   : No
Color range                              : Limited
Matrix coefficients                      : BT.709

Audio #1
ID                                       : 2
Format                                   : AC-3
Format/Info                              : Audio Coding 3
Commercial name                          : Dolby Digital
Codec ID                                 : A_AC3
Duration                                 : 1 h 22 min
Bit rate mode                            : Constant
Bit rate                                 : 640 kb/s
Channel(s)                               : 6 channels
Channel layout                           : L R C LFE Ls Rs
Sampling rate                            : 48.0 kHz
Frame rate                               : 31.250 FPS (1536 SPF)
Bit depth                                : 16 bits
Compression mode                         : Lossy
Stream size                              : 376 MiB (11%)
Title                                    : English
Language                                 : English
Service kind                             : Complete Main
Default                                  : Yes
Forced                                   : No

Audio #2
ID                                       : 3
Format                                   : AAC LC
Format/Info                              : Advanced Audio Codec Low Complexity
Codec ID                                 : A_AAC-2
Duration                                 : 1 h 22 min
Bit rate                                 : 105 kb/s
Channel(s)                               : 2 channels
Channel layout                           : L R
Sampling rate                            : 48.0 kHz
Frame rate                               : 46.875 FPS (1024 SPF)
Compression mode                         : Lossy
Delay relative to video                  : 9 ms
Stream size                              : 61.9 MiB (2%)
Title                                    : Commentary With Director Ross Boyask And Actor Stu Bennett
Language                                 : English
Default                                  : No
Forced                                   : No

Text #1
ID                                       : 4
Format                                   : PGS
Muxing mode                              : zlib
Codec ID                                 : S_HDMV/PGS
Codec ID/Info                            : Picture based subtitle format used on BDs/HD-DVDs
Duration                                 : 1 h 15 min
Bit rate                                 : 23.0 kb/s
Count of elements                        : 1408
Stream size                              : 12.4 MiB (0%)
Language                                 : English
Default                                  : No
Forced                                   : No

Text #2
ID                                       : 5
Format                                   : PGS
Muxing mode                              : zlib
Codec ID                                 : S_HDMV/PGS
Codec ID/Info                            : Picture based subtitle format used on BDs/HD-DVDs
Duration                                 : 1 h 20 min
Bit rate                                 : 25.3 kb/s
Count of elements                        : 1898
Stream size                              : 14.7 MiB (0%)
Language                                 : English
Default                                  : No
Forced                                   : No

Text #3
ID                                       : 6
Format                                   : PGS
Muxing mode                              : zlib
Codec ID                                 : S_HDMV/PGS
Codec ID/Info                            : Picture based subtitle format used on BDs/HD-DVDs
Duration                                 : 1 h 19 min
Bit rate                                 : 21.4 kb/s
Count of elements                        : 1410
Stream size                              : 12.1 MiB (0%)
Language                                 : Spanish
Default                                  : No
Forced                                   : No

Menu
00:00:00.000                             : en:Chapter 01
00:06:22.424                             : en:Chapter 02
00:09:38.620                             : en:Chapter 03
00:15:25.466                             : en:Chapter 04
00:18:08.629                             : en:Chapter 05
00:23:19.940                             : en:Chapter 06
00:27:18.679                             : en:Chapter 07
00:29:28.809                             : en:Chapter 08
00:35:51.691                             : en:Chapter 09
00:40:13.453                             : en:Chapter 10
00:45:30.269                             : en:Chapter 11
00:51:16.615                             : en:Chapter 12
00:58:00.519                             : en:Chapter 13
01:02:08.767                             : en:Chapter 14
01:04:37.415                             : en:Chapter 15
01:14:50.027                             : en:Chapter 16






fb86308a2c3c34201ec92280d5fd1a8f.zip (35.77 KB, 下载次数: 0)

回复

使用道具 举报

小黑屋|百度云资源论坛 |网站地图

本网站所有资源来自网络,如无意中侵犯了您的权益,请发邮件至 [email protected],立即清除相关链接

GMT+8, 2020-9-26 03:19 , Processed in 0.099329 second(s), 23 queries .

Powered by Discuz! X3.2

© 2001-2013 Comsenz Inc.

快速回复 返回顶部 返回列表