百度云资源论坛

 找回密码
 立即注册
搜索

高调 The.High.Note.2020.720p.BluRay.x264-WUTANG 6.34GB

[复制链接]
百度云电影 发表于 2020-8-16 07:12:25 | 显示全部楼层 |阅读模式
帖子完整标题:高调 The.High.Note.2020.720p.BluRay.x264-WUTANG 6.34GB




◎译  名 高调 / Covers / 天后小助理(台) / 封面人物 / 我老细系天后(港)
◎片  名 The High Note
◎年  代 2020
◎产  地 美国
◎类  别 剧情 / 爱情 / 音乐
◎语  言 英语
◎上映日期 2020-05-29(美国)
◎IMDb评分  6.2/10 from 2632 users
◎导  演 尼萨·加纳特 Nisha Ganatra
◎编  剧 Flora Greeson
◎主  演 达科塔·约翰逊 Dakota Johnson
       特雷西·埃利斯·罗斯 Tracee Ellis Ross
       小凯文·哈里森 Kelvin Harrison Jr.
       艾斯·库珀 Ice Cube
       佐伊·晁 Zo? Chao
       艾迪·伊扎德 Eddie Izzard
       比尔·普尔曼 Bill Pullman
       迪柏洛 Diplo
       琼·黛安·拉斐尔 June Diane Raphael
       本·刘易斯 Ben Lewis
       德尼·阿克代尼兹 Deniz Akdeniz
       桑德拉·罗斯科 Sandra Rosko
       Rupak Ginn
       杰弗里·塞尔夫 Jeffery Self
       Alexandra Vassell
       Molly Malin
       Sonal Shah


◎标  签 音乐 | 2020 | 达科塔·约翰逊 | 美国 | DakotaJohnson | 轻喜剧 | 美国电影 | 剧情

◎简  介   

  达科塔·约翰逊(《五十度灰》)和特雷西·埃利斯·罗斯(《喜新不厌旧》)主演的音乐剧情片《高调》发布预告,天后歌手和她的私人助理的故事。天后看似高傲没心没肺,实则对自己40岁后的发展而倍感压力,想寻求艺术上的突破;助理很感激能跟对方合作,但苦于自己碌碌无为只能做杂事,想施展音乐制作方面的才华。此时,可能同时改变两人人生的机会来了:天后将发行下一张专辑,她打破陈规,邀请自荐的助理来担任新专制作人。她们能成功吗?
Video
ID                                       : 1
Format                                   : AVC
Format/Info                              : Advanced Video Codec
Format settings                          : CABAC / 8 Ref Frames
Format settings, CABAC                   : Yes
Format settings, Reference frames        : 8 frames
Codec ID                                 : V_MPEG4/ISO/AVC
Duration                                 : 1 h 52 min
Bit rate                                 : 7 305 kb/s
Width                                    : 1 280 pixels
Height                                   : 536 pixels
Display aspect ratio                     : 2.40:1
Frame rate mode                          : Constant
Frame rate                               : 23.976 (24000/1001/189150) FPS
Color space                              : YUV
Chroma subsampling                       : 4:2:0
Bit depth                                : 8 bits
Scan type                                : Progressive
Bits/(Pixel*Frame)                       : 0.444
Stream size                              : 5.76 GiB (91%)
Writing library                          : x264 core 161 r3018 db0d417
Encoding settings                        : cabac=1 / ref=8 / deblock=1:-3:-3 / analyse=0x3:0x133 / me=umh / subme=9 / psy=1 / psy_rd=1.00:0.00 / mixed_ref=1 / me_range=24 / chroma_me=1 / trellis=2 / 8x8dct=1 / cqm=0 / deadzone=21,11 / fast_pskip=0 / chroma_qp_offset=-2 / threads=17 / lookahead_threads=1 / sliced_threads=0 / nr=0 / decimate=1 / interlaced=0 / bluray_compat=0 / constrained_intra=0 / bframes=3 / b_pyramid=2 / b_adapt=2 / b_bias=0 / direct=3 / weightb=1 / open_gop=0 / weightp=2 / keyint=250 / keyint_min=23 / scenecut=40 / intra_refresh=0 / rc=crf / mbtree=0 / crf=14.0 / qcomp=0.60 / qpmin=0 / qpmax=69 / qpstep=4 / ip_ratio=1.40 / pb_ratio=1.30 / aq=3:0.88
Default                                  : Yes
Forced                                   : No
Color range                              : Limited
Matrix coefficients                      : BT.709

Audio
ID                                       : 2
Format                                   : AC-3
Format/Info                              : Audio Coding 3
Commercial name                          : Dolby Digital
Codec ID                                 : A_AC3
Duration                                 : 1 h 52 min
Bit rate mode                            : Constant
Bit rate                                 : 640 kb/s
Channel(s)                               : 6 channels
Channel layout                           : L R C LFE Ls Rs
Sampling rate                            : 48.0 kHz
Frame rate                               : 31.250 FPS (1536 SPF)
Bit depth                                : 16 bits
Compression mode                         : Lossy
Stream size                              : 517 MiB (8%)
Title                                    : English
Language                                 : English
Service kind                             : Complete Main
Default                                  : Yes
Forced                                   : No

Text #1
ID                                       : 3
Format                                   : PGS
Muxing mode                              : zlib
Codec ID                                 : S_HDMV/PGS
Codec ID/Info                            : Picture based subtitle format used on BDs/HD-DVDs
Duration                                 : 1 h 52 min
Bit rate                                 : 58.3 kb/s
Count of elements                        : 4486
Stream size                              : 46.9 MiB (1%)
Language                                 : English
Default                                  : No
Forced                                   : No

Text #2
ID                                       : 4
Format                                   : PGS
Muxing mode                              : zlib
Codec ID                                 : S_HDMV/PGS
Codec ID/Info                            : Picture based subtitle format used on BDs/HD-DVDs
Duration                                 : 1 h 52 min
Bit rate                                 : 55.0 kb/s
Count of elements                        : 4466
Stream size                              : 44.2 MiB (1%)
Language                                 : Spanish
Default                                  : No
Forced                                   : No

Text #3
ID                                       : 5
Format                                   : PGS
Muxing mode                              : zlib
Codec ID                                 : S_HDMV/PGS
Codec ID/Info                            : Picture based subtitle format used on BDs/HD-DVDs
Duration                                 : 1 h 52 min
Bit rate                                 : 52.0 kb/s
Count of elements                        : 3944
Stream size                              : 41.8 MiB (1%)
Language                                 : French
Default                                  : No
Forced                                   : No

Menu
00:00:00.000                             : en:Chapter 01
00:05:26.576                             : en:Chapter 02
00:10:56.489                             : en:Chapter 03
00:17:38.975                             : en:Chapter 04
00:24:26.757                             : en:Chapter 05
00:30:27.951                             : en:Chapter 06
00:36:54.129                             : en:Chapter 07
00:40:24.631                             : en:Chapter 08
00:45:30.937                             : en:Chapter 09
00:50:39.245                             : en:Chapter 10
00:55:39.002                             : en:Chapter 11
01:01:54.586                             : en:Chapter 12
01:07:11.319                             : en:Chapter 13
01:12:34.684                             : en:Chapter 14
01:18:56.231                             : en:Chapter 15
01:23:55.155                             : en:Chapter 16
01:28:39.356                             : en:Chapter 17
01:33:18.927                             : en:Chapter 18
01:41:49.979                             : en:Chapter 19
01:46:15.744                             : en:Chapter 20




5a9b4ba164b6faca72beecd6830e21c1.zip (33.17 KB, 下载次数: 0)

回复

使用道具 举报

小黑屋|百度云资源论坛 |网站地图

本网站所有资源来自网络,如无意中侵犯了您的权益,请发邮件至 [email protected],立即清除相关链接

GMT+8, 2020-9-26 02:26 , Processed in 0.109997 second(s), 23 queries .

Powered by Discuz! X3.2

© 2001-2013 Comsenz Inc.

快速回复 返回顶部 返回列表