百度云资源论坛

 找回密码
 立即注册
搜索

通灵车教/极其普通 Extra.Ordinary.2019.720p.BluRay.X264-AMIABLE 3.38GB

[复制链接]
百度云资源 发表于 2020-8-16 07:12:25 | 显示全部楼层 |阅读模式
帖子完整标题:通灵车教/极其普通 Extra.Ordinary.2019.720p.BluRay.X264-AMIABLE 3.38GB




◎译  名 通灵车教 / 极其普通 / 超有事大法师 / 附加平庸
◎片  名 Extra Ordinary
◎年  代 2019
◎产  地 爱尔兰 / 比利时 / 芬兰 / 英国
◎类  别 喜剧 / 恐怖 / 奇幻
◎语  言 英语
◎上映日期 2019-03-10(西南偏南电影节)
◎片  长 94分钟
◎导  演 迈克·艾亨 Mike Ahern / 恩达·罗曼 Enda Loughman
◎编  剧 迈克·艾亨 Mike Ahern / Demian Fox / 梅芙·希金斯 Maeve Higgins / 恩达·罗曼 Enda Loughman
◎主  演 梅芙·希金斯 Maeve Higgins
       巴里·沃德 Barry Ward
       威尔·福特 Will Forte
       克劳迪娅·奥多尔蒂 Claudia O'Doherty
       杰米·比米什 Jamie Beamish
       特莉·钱德勒 Terri Chandler
       瑞斯特德·库珀 Risteard Cooper
       艾玛·科尔曼 Emma Coleman
       Carrie Crowley
       Mary McEvoy
       Sarah O'Farrell
       Agatha Ellis
       Jon Cheung
       Valerie O'Connor
       希沃恩·麦克斯维尼 Siobhan McSweeney
       Eamon Morrissey
       迈克·艾亨 Mike Ahern
       恩达·罗曼 Enda Loughman
       萨拉·德 Sara Dee


◎标  签 喜剧 | 爱尔兰 | 恐怖 | 奇幻 | 惊悚 | 2019 | 电影 | 超自然

◎简  介   

  罗斯是一个可爱的小镇驾驶教练,她有超能力,也就是“天赋”,这意味着她可以和精神世界对话。在看到他们对她父亲文森特所做的事情后,罗斯对自己的能力又爱又恨,并试图忽视当地人不断的琐碎的精神需求——闹鬼的垃圾箱、拖拉机、儿童自行车、煎锅等等。然而,当她的帮助是请求莎拉,一个十几岁的父亲,马丁,是困扰他已故的唠叨妻子,她是非常诱惑…马丁似乎是个很好的人!与此同时,在城外的一座大城堡里,克里斯琴·温特,一个落魄的摇滚明星,有一个邪恶的计划,要出卖自己的灵魂来获得新的...
Video
ID                                       : 1
Format                                   : AVC
Format/Info                              : Advanced Video Codec
Format settings                          : CABAC / 8 Ref Frames
Format settings, CABAC                   : Yes
Format settings, Reference frames        : 8 frames
Codec ID                                 : V_MPEG4/ISO/AVC
Duration                                 : 1 h 34 min
Bit rate                                 : 4 479 kb/s
Width                                    : 1 280 pixels
Height                                   : 534 pixels
Display aspect ratio                     : 2.40:1
Frame rate mode                          : Constant
Frame rate                               : 24.000 FPS
Color space                              : YUV
Chroma subsampling                       : 4:2:0
Bit depth                                : 8 bits
Scan type                                : Progressive
Bits/(Pixel*Frame)                       : 0.273
Stream size                              : 2.95 GiB (87%)
Writing library                          : x264 core 161 r3018 db0d417
Encoding settings                        : cabac=1 / ref=8 / deblock=1:-3:-3 / analyse=0x3:0x133 / me=umh / subme=9 / psy=1 / psy_rd=1.00:0.00 / mixed_ref=1 / me_range=32 / chroma_me=1 / trellis=2 / 8x8dct=1 / cqm=0 / deadzone=21,11 / fast_pskip=0 / chroma_qp_offset=-2 / threads=17 / lookahead_threads=1 / sliced_threads=0 / nr=0 / decimate=0 / interlaced=0 / bluray_compat=0 / constrained_intra=0 / bframes=3 / b_pyramid=2 / b_adapt=2 / b_bias=0 / direct=3 / weightb=1 / open_gop=0 / weightp=2 / keyint=250 / keyint_min=24 / scenecut=40 / intra_refresh=0 / rc=crf / mbtree=0 / crf=15.5 / qcomp=0.60 / qpmin=0 / qpmax=69 / qpstep=4 / ip_ratio=1.40 / pb_ratio=1.30 / aq=3:0.80
Default                                  : Yes
Forced                                   : No
Color range                              : Limited
Matrix coefficients                      : BT.709

Audio
ID                                       : 2
Format                                   : AC-3
Format/Info                              : Audio Coding 3
Commercial name                          : Dolby Digital
Codec ID                                 : A_AC3
Duration                                 : 1 h 34 min
Bit rate mode                            : Constant
Bit rate                                 : 640 kb/s
Channel(s)                               : 6 channels
Channel layout                           : L R C LFE Ls Rs
Sampling rate                            : 48.0 kHz
Frame rate                               : 31.250 FPS (1536 SPF)
Bit depth                                : 16 bits
Compression mode                         : Lossy
Stream size                              : 432 MiB (12%)
Title                                    : AC-3 5.1
Language                                 : English
Service kind                             : Complete Main
Default                                  : Yes
Forced                                   : No

Text #1
ID                                       : 3
Format                                   : UTF-8
Codec ID                                 : S_TEXT/UTF8
Codec ID/Info                            : UTF-8 Plain Text
Duration                                 : 1 h 33 min
Bit rate                                 : 74 b/s
Count of elements                        : 1371
Stream size                              : 51.0 KiB (0%)
Title                                    : Stripped SRT
Language                                 : English
Default                                  : No
Forced                                   : No

Text #2
ID                                       : 4
Format                                   : UTF-8
Codec ID                                 : S_TEXT/UTF8
Codec ID/Info                            : UTF-8 Plain Text
Duration                                 : 1 h 33 min
Bit rate                                 : 81 b/s
Count of elements                        : 1495
Stream size                              : 56.1 KiB (0%)
Title                                    : SDH SRT
Language                                 : English
Default                                  : No
Forced                                   : No

Text #3
ID                                       : 5
Format                                   : PGS
Muxing mode                              : zlib
Codec ID                                 : S_HDMV/PGS
Codec ID/Info                            : Picture based subtitle format used on BDs/HD-DVDs
Duration                                 : 1 h 33 min
Bit rate                                 : 33.2 kb/s
Count of elements                        : 2990
Stream size                              : 22.2 MiB (1%)
Title                                    : English SDH
Language                                 : English
Default                                  : No
Forced                                   : No

Menu
00:00:00.000                             : en:Chapter 01
00:09:59.208                             : en:Chapter 02
00:20:00.583                             : en:Chapter 03
00:30:01.542                             : en:Chapter 04
00:39:59.708                             : en:Chapter 05
00:50:00.208                             : en:Chapter 06
01:00:00.208                             : en:Chapter 07
01:09:59.667                             : en:Chapter 08
01:20:00.208                             : en:Chapter 09
01:30:02.667                             : en:Chapter 10






59a0e040242a0bad22a67b25c335d9e3.zip (35.33 KB, 下载次数: 0)

回复

使用道具 举报

小黑屋|百度云资源论坛 |网站地图

本网站所有资源来自网络,如无意中侵犯了您的权益,请发邮件至 [email protected],立即清除相关链接

GMT+8, 2020-9-26 04:21 , Processed in 0.112534 second(s), 23 queries .

Powered by Discuz! X3.2

© 2001-2013 Comsenz Inc.

快速回复 返回顶部 返回列表