百度云资源论坛

 找回密码
 立即注册
搜索

燃烧女子的肖像 Portrait.of.a.Lady.on.Fire.2019.720p.BluRay.x264-USURY ...

[复制链接]
百度云资源 发表于 2020-8-16 07:12:25 | 显示全部楼层 |阅读模式
帖子完整标题:燃烧女子的肖像 Portrait.of.a.Lady.on.Fire.2019.720p.BluRay.x264-USURY 5.19GB




◎译  名 燃烧女子的肖像 / Portrait of a Lady on Fire / 年轻女孩的肖像画 / 浴火女子像(豆友译名) / 浴火女孩肖像画 / 浴火的少女画像(港) / 火吻女孩的肖像 / 烧女图 / 燃烧女子的画像(台) / 燃烧的女子肖像
◎片  名 Portrait de la jeune fille en feu
◎年  代 2019
◎产  地 法国
◎类  别 剧情 / 同性 / 历史
◎语  言 法语 / 意大利语
◎上映日期 2019-05-19(戛纳电影节) / 2019-09-18(法国)
◎IMDb评分  8.1/10 from 40350 users
◎片  长 120分钟
◎导  演 瑟琳·席安玛 Céline Sciamma
◎编  剧 瑟琳·席安玛 Céline Sciamma
◎主  演 诺米·梅兰特 Noémie Merlant
       阿黛拉·哈内尔 Adèle Haenel
       卢安娜·巴杰拉米 Luàna Bajrami
       瓦莱丽亚·戈利诺 Valeria Golino
       Christel Baras
       阿曼德·博兰格 Armande Boulanger
       Guy Delamarche
       Clément Bouyssou
       米歇尔·克莱门特 Michèle Clément
       Cécile Morel


◎标  签 同性 | 女性 | 法国 | 爱情 | LGBT | 法国电影 | 2019 | 戛纳电影节

◎简  介   

  1760年法国布列塔尼,才华洋溢的年轻女画家玛莉安(诺米·梅兰特饰)收到委托,需要在对方不知情的状况下,完成富家小姐艾洛伊兹(阿黛拉·哈内尔饰)出嫁前的肖像画。两人在孤岛相依为命,白天女画家悄悄观察小姐的一举一动,到了晚上才纵情下笔。两人在画与被画的亲密接触下,即便是在充满礼教束缚的时代,却也渐渐萌发了禁忌的暧昧情愫,随着大婚之日越来越近,她们的爱火却越烧越猛烈…

◎获奖情况  

  第72届戛纳电影节(2019)
  主竞赛单元 金棕榈奖(提名) 瑟琳·席安玛
  主竞赛单元 最佳编剧 瑟琳·席安玛
  同志金棕榈奖 瑟琳·席安玛

  第77届金球奖(2020)
  电影类 最佳外语片(提名)

  第73届英国电影学院奖(2020)
  电影奖 最佳非英语片(提名)

  第32届欧洲电影奖(2019)
  最佳导演(提名) 瑟琳·席安玛
  最佳女主角(提名) 阿黛拉·哈内尔 / 诺米·梅兰特
  最佳编剧 瑟琳·席安玛

  第45届法国凯撒电影奖(2020)
  最佳影片(提名)
  最佳导演(提名) 瑟琳·席安玛
  最佳女主角(提名) 阿黛拉·哈内尔 / 诺米·梅兰特
  最佳新人女演员(提名) 卢安娜·巴杰拉米
  最佳原创剧本(提名) 瑟琳·席安玛
  最佳摄影
  最佳音效(提名)
  最佳服装(提名)
  最佳布景(提名)

  第34届西班牙戈雅奖(2020)
  最佳欧洲电影(提名)

  第85届纽约影评人协会奖(2019)
  最佳摄影 克莱尔·马松

  第91届美国国家评论协会奖(2019)
  五佳外语片

  第25届美国评论家选择电影奖(2020)
  最佳外语片(提名)

  第35届美国独立精神奖(2020)
  最佳国际电影(提名)

  第22届英国独立电影奖(2019)
  最佳外国独立电影(提名)

  第24届金卫星奖(2020)
  电影部门 最佳外语片(提名)

  第54届美国国家影评人协会奖(2020)
  最佳摄影 克莱尔·马松

  第40届伦敦影评人协会奖(2020)
  年度电影(提名)
  年度外语片(提名)
  年度导演(提名) 瑟琳·席安玛

  第40届波士顿影评人协会奖(2019)
  最佳影片(提名)
  最佳外语片(提名)
  最佳摄影 克莱尔·马松

  第45届洛杉矶影评人协会奖(2019)
  最佳摄影
  最佳外语片(提名)

  第32届芝加哥影评人协会奖(2019)
  最佳外语片(提名)
  最佳摄影(提名) 克莱尔·马松
  最佳服装设计(提名)

  第23届美国在线影评人协会奖(2020)
  最佳影片(提名)
  最佳导演(提名) 瑟琳·席安玛
  最佳摄影(提名) 克莱尔·马松
  最佳非英语片(提名)

  第6届豆瓣电影年度榜单(2019)
  年度LGBT电影(提名)
Video
ID                                       : 1
Format                                   : AVC
Format/Info                              : Advanced Video Codec
Format settings                          : CABAC / 9 Ref Frames
Format settings, CABAC                   : Yes
Format settings, Reference frames        : 9 frames
Codec ID                                 : V_MPEG4/ISO/AVC
Duration                                 : 2 h 1 min
Bit rate                                 : 5 456 kb/s
Width                                    : 1 280 pixels
Height                                   : 690 pixels
Display aspect ratio                     : 1.85:1
Frame rate mode                          : Constant
Frame rate                               : 23.976 (24000/1001/189150) FPS
Color space                              : YUV
Chroma subsampling                       : 4:2:0
Bit depth                                : 8 bits
Scan type                                : Progressive
Bits/(Pixel*Frame)                       : 0.258
Stream size                              : 4.64 GiB (89%)
Writing library                          : x264 core 161 r3018 db0d417
Encoding settings                        : cabac=1 / ref=9 / deblock=1:-3:-3 / analyse=0x3:0x133 / me=umh / subme=10 / psy=1 / psy_rd=1.00:0.15 / mixed_ref=1 / me_range=24 / chroma_me=1 / trellis=2 / 8x8dct=1 / cqm=0 / deadzone=21,11 / fast_pskip=1 / chroma_qp_offset=-3 / threads=18 / lookahead_threads=3 / sliced_threads=0 / nr=0 / decimate=1 / interlaced=0 / bluray_compat=0 / constrained_intra=0 / bframes=8 / b_pyramid=2 / b_adapt=2 / b_bias=0 / direct=3 / weightb=1 / open_gop=0 / weightp=2 / keyint=250 / keyint_min=23 / scenecut=40 / intra_refresh=0 / rc_lookahead=60 / rc=crf / mbtree=1 / crf=14.0 / qcomp=0.60 / qpmin=0 / qpmax=69 / qpstep=4 / ip_ratio=1.40 / aq=3:0.60
Language                                 : English
Default                                  : Yes
Forced                                   : No

Audio
ID                                       : 2
Format                                   : AC-3
Format/Info                              : Audio Coding 3
Commercial name                          : Dolby Digital
Codec ID                                 : A_AC3
Duration                                 : 2 h 1 min
Bit rate mode                            : Constant
Bit rate                                 : 640 kb/s
Channel(s)                               : 6 channels
Channel layout                           : L R C LFE Ls Rs
Sampling rate                            : 48.0 kHz
Frame rate                               : 31.250 FPS (1536 SPF)
Compression mode                         : Lossy
Stream size                              : 557 MiB (10%)
Language                                 : French
Service kind                             : Complete Main
Default                                  : Yes
Forced                                   : No

Text #1
ID                                       : 3
Format                                   : UTF-8
Codec ID                                 : S_TEXT/UTF8
Codec ID/Info                            : UTF-8 Plain Text
Duration                                 : 1 h 54 min
Bit rate                                 : 17 b/s
Count of elements                        : 617
Stream size                              : 14.6 KiB (0%)
Title                                    : English
Language                                 : English
Default                                  : Yes
Forced                                   : Yes

Text #2
ID                                       : 4
Format                                   : PGS
Muxing mode                              : zlib
Codec ID                                 : S_HDMV/PGS
Codec ID/Info                            : Picture based subtitle format used on BDs/HD-DVDs
Duration                                 : 1 h 54 min
Bit rate                                 : 2 743 b/s
Count of elements                        : 1234
Stream size                              : 2.25 MiB (0%)
Title                                    : English
Language                                 : English
Default                                  : No
Forced                                   : No

Menu
00:00:00.000                             : en:00:00:00.000
00:03:15.612                             : en:00:03:15.612
00:09:07.714                             : en:00:09:07.714
00:12:44.597                             : en:00:12:44.597
00:15:07.281                             : en:00:15:07.281
00:19:06.854                             : en:00:19:06.854
00:23:13.017                             : en:00:23:13.017
00:28:44.640                             : en:00:28:44.640
00:35:13.069                             : en:00:35:13.069
00:43:05.249                             : en:00:43:05.249
00:55:35.207                             : en:00:55:35.207
01:04:04.507                             : en:01:04:04.507
01:10:18.131                             : en:01:10:18.131
01:14:57.326                             : en:01:14:57.326
01:24:54.965                             : en:01:24:54.965
01:30:48.109                             : en:01:30:48.109
01:40:53.839                             : en:01:40:53.839
01:47:36.033                             : en:01:47:36.033
01:52:07.095                             : en:01:52:07.095


229b3b5ee23e385514b0be4cb03dc0f6.zip (27.44 KB, 下载次数: 0)

回复

使用道具 举报

小黑屋|百度云资源论坛 |网站地图

本网站所有资源来自网络,如无意中侵犯了您的权益,请发邮件至 [email protected],立即清除相关链接

GMT+8, 2020-11-28 21:40 , Processed in 0.102258 second(s), 23 queries .

Powered by Discuz! X3.2

© 2001-2013 Comsenz Inc.

快速回复 返回顶部 返回列表