百度云资源论坛

 找回密码
 立即注册
搜索

卧底兄弟2 Undercover.Brother.2.2019.720p.BluRay.x264-TheWretched 3.85GB

[复制链接]
百度云电影 发表于 2020-8-16 07:12:25 | 显示全部楼层 |阅读模式
帖子完整标题:卧底兄弟2 Undercover.Brother.2.2019.720p.BluRay.x264-TheWretched 3.85GB




◎译  名 卧底兄弟2
◎片  名 Undercover Brother 2
◎年  代 2020
◎产  地 美国
◎类  别 喜剧
◎语  言 英语
◎上映日期 2019-11-05(美国)
◎IMDb评分  3.4/10 from 425 users
◎片  长 84分钟
◎导  演 Leslie Small
◎编  剧 伊恩·爱德华兹 Ian Edwards / 史蒂夫·玛佐 Stephen Mazur
◎主  演 迈克尔·加·怀特 Michael Jai White
       巴瑞·波斯威克 Barry Bostwick


◎标  签 美国 | dumb

◎简  介   

  游戏中最酷的间谍又回到了这部搞笑的续集里,由迈克尔·杰伊·怀特(斯纳尔,凡尔蒙·康巴特)和文斯·斯旺(50中)主演,作为他不太酷的弟弟莱昂内尔。早在2002年,兄弟俩就紧随《男人》之后,他是一个种族主义的、世界性组织的领导人,但不小心被一场压迫性的白雪雪崩所困。十六年后,他们被发现,解冻,当卧底兄弟仍然处于昏迷状态时,莱昂内尔开始完成他们开始的工作。在兄弟会的帮助下,一个老敌人,和空灵的卧底兄弟指导他一路走来,莱昂内尔必须承担一个更危险的威胁黑人社区和世界 - 极端的'觉醒'!
Video
ID                                       : 1
Format                                   : AVC
Format/Info                              : Advanced Video Codec
Format settings                          : CABAC / 8 Ref Frames
Format settings, CABAC                   : Yes
Format settings, Reference frames        : 8 frames
Codec ID                                 : V_MPEG4/ISO/AVC
Duration                                 : 1 h 24 min
Bit rate                                 : 5 847 kb/s
Width                                    : 1 280 pixels
Height                                   : 720 pixels
Display aspect ratio                     : 16:9
Frame rate mode                          : Constant
Frame rate                               : 23.976 (24000/1001/189150) FPS
Color space                              : YUV
Chroma subsampling                       : 4:2:0
Bit depth                                : 8 bits
Scan type                                : Progressive
Bits/(Pixel*Frame)                       : 0.265
Stream size                              : 3.46 GiB (90%)
Writing library                          : x264 core 161 r3018 db0d417
Encoding settings                        : cabac=1 / ref=8 / deblock=1:-3:-3 / analyse=0x3:0x133 / me=umh / subme=9 / psy=1 / psy_rd=1.00:0.00 / mixed_ref=1 / me_range=16 / chroma_me=1 / trellis=2 / 8x8dct=1 / cqm=0 / deadzone=21,11 / fast_pskip=0 / chroma_qp_offset=-2 / threads=24 / lookahead_threads=2 / sliced_threads=0 / nr=0 / decimate=0 / interlaced=0 / bluray_compat=0 / constrained_intra=0 / bframes=3 / b_pyramid=2 / b_adapt=2 / b_bias=0 / direct=3 / weightb=1 / open_gop=0 / weightp=2 / keyint=250 / keyint_min=23 / scenecut=40 / intra_refresh=0 / rc=crf / mbtree=0 / crf=17.0 / qcomp=0.60 / qpmin=0 / qpmax=69 / qpstep=4 / ip_ratio=1.40 / pb_ratio=1.30 / aq=3:0.70
Language                                 : English
Default                                  : Yes
Forced                                   : No
Color range                              : Limited
Matrix coefficients                      : BT.709

Audio
ID                                       : 2
Format                                   : AC-3
Format/Info                              : Audio Coding 3
Commercial name                          : Dolby Digital
Codec ID                                 : A_AC3
Duration                                 : 1 h 24 min
Bit rate mode                            : Constant
Bit rate                                 : 640 kb/s
Channel(s)                               : 6 channels
Channel layout                           : L R C LFE Ls Rs
Sampling rate                            : 48.0 kHz
Frame rate                               : 31.250 FPS (1536 SPF)
Compression mode                         : Lossy
Stream size                              : 387 MiB (10%)
Language                                 : English
Service kind                             : Complete Main
Default                                  : Yes
Forced                                   : No

Text #1
ID                                       : 3
Format                                   : UTF-8
Codec ID                                 : S_TEXT/UTF8
Codec ID/Info                            : UTF-8 Plain Text
Duration                                 : 1 h 20 min
Bit rate                                 : 82 b/s
Count of elements                        : 1456
Stream size                              : 48.4 KiB (0%)
Title                                    : English
Language                                 : English
Default                                  : No
Forced                                   : No

Text #2
ID                                       : 4
Format                                   : UTF-8
Codec ID                                 : S_TEXT/UTF8
Codec ID/Info                            : UTF-8 Plain Text
Duration                                 : 1 h 20 min
Bit rate                                 : 87 b/s
Count of elements                        : 1543
Stream size                              : 51.6 KiB (0%)
Title                                    : English (SDH)
Language                                 : English
Default                                  : No
Forced                                   : No

Text #3
ID                                       : 5
Format                                   : PGS
Muxing mode                              : zlib
Codec ID                                 : S_HDMV/PGS
Codec ID/Info                            : Picture based subtitle format used on BDs/HD-DVDs
Duration                                 : 1 h 20 min
Bit rate                                 : 56.7 kb/s
Count of elements                        : 3086
Stream size                              : 32.7 MiB (1%)
Title                                    : English (SDH SUP)
Language                                 : English
Default                                  : No
Forced                                   : No

Menu
00:00:00.000                             : en:Chapter 01
00:10:00.767                             : en:Chapter 02
00:20:01.283                             : en:Chapter 03
00:30:02.175                             : en:Chapter 04
00:40:02.567                             : en:Chapter 05
00:50:04.501                             : en:Chapter 06
01:00:04.142                             : en:Chapter 07
01:10:16.129                             : en:Chapter 08
01:20:05.342                             : en:Chapter 09





6fb970ce9e652aa9a3eaea8ae06c8046.zip (39.96 KB, 下载次数: 0)

回复

使用道具 举报

小黑屋|百度云资源论坛 |网站地图

本网站所有资源来自网络,如无意中侵犯了您的权益,请发邮件至 [email protected],立即清除相关链接

GMT+8, 2020-9-26 02:23 , Processed in 0.107155 second(s), 23 queries .

Powered by Discuz! X3.2

© 2001-2013 Comsenz Inc.

快速回复 返回顶部 返回列表