百度云资源论坛

 找回密码
 立即注册
搜索

真相 The.Truth.2019.720p.BluRay.x264-CADAVER 6.56GB

[复制链接]
帖子完整标题:真相 The.Truth.2019.720p.BluRay.x264-CADAVER 6.56GB




◎译  名 真相 / Mother and Daughter / The Truth / The Truth About Catherine / 凯瑟琳的真相 / 母女 / 真实 / 真实芳言(港) / 真実
◎片  名 La vérité
◎年  代 2019
◎产  地 法国 / 日本
◎类  别 剧情
◎语  言 法语 / 英语
◎上映日期 2019-08-28(威尼斯电影节) / 2019-10-11(日本) / 2020-01-22(法国)
◎IMDb评分  6.4/10 from 2405 users
◎片  长 106分钟
◎导  演 是枝裕和 Hirokazu Koreeda
◎编  剧 是枝裕和 Hirokazu Koreeda / 刘宇昆 Ken Liu
◎主  演 凯瑟琳·德纳芙 Catherine Deneuve
       朱丽叶·比诺什 Juliette Binoche
       伊桑·霍克 Ethan Hawke
       露德温·塞尼耶 Ludivine Sagnier
       阿兰·利博 Alain Libolt
       罗杰·范·胡尔 Roger Van Hool
       洛朗特·卡普洛托 Laurent Capelluto
       玛雅·珊萨 Maya Sansa
       杰基·贝约尔 Jackie Berroyer
       赫尔米·德里迪 Helmi Dridi
       Virgile Fouilou
       Stéphane Ly-Cuong
       亚历珊德拉·耶尔马克 Aleksandra Yermak
       Sébastien Chassagne
       Manon Clavel
       Clémentine Grenier
       Christian Crahay


◎标  签 是枝裕和 | 法国 | 日本 | 2019 | 朱丽叶·比诺什 | 法国电影 | 伊桑霍克 | 剧情

◎简  介  

  Fabienne是一个女星——是法国影坛巨星。在拥护爱戴她的男人面前她是高高在上的女神。她的女儿因她出版回忆录而带着丈夫和年幼的孩子从纽约回到巴黎。母女二人的重聚很快便变成互相指责:真相将被揭露、算清所有前帐,向对方坦然承认自己的爱和怨恨。

◎获奖情况  

  第76届威尼斯电影节(2019)
  主竞赛单元 金狮奖 (提名) 是枝裕和
Video
ID                                       : 1
Format                                   : AVC
Format/Info                              : Advanced Video Codec
Format settings                          : CABAC / 9 Ref Frames
Format settings, CABAC                   : Yes
Format settings, Reference frames        : 9 frames
Codec ID                                 : V_MPEG4/ISO/AVC
Duration                                 : 1 h 47 min
Bit rate                                 : 8 119 kb/s
Width                                    : 1 280 pixels
Height                                   : 692 pixels
Display aspect ratio                     : 1.85:1
Frame rate mode                          : Constant
Frame rate                               : 24.000 FPS
Color space                              : YUV
Chroma subsampling                       : 4:2:0
Bit depth                                : 8 bits
Scan type                                : Progressive
Bits/(Pixel*Frame)                       : 0.382
Stream size                              : 6.08 GiB (93%)
Writing library                          : x264 core 160 r3000 33f9e14
Encoding settings                        : cabac=1 / ref=9 / deblock=1:-3:-3 / analyse=0x3:0x133 / me=umh / subme=10 / psy=1 / psy_rd=1.50:0.15 / mixed_ref=1 / me_range=24 / chroma_me=1 / trellis=2 / 8x8dct=1 / cqm=0 / deadzone=21,11 / fast_pskip=0 / chroma_qp_offset=-3 / threads=22 / lookahead_threads=3 / sliced_threads=0 / nr=0 / decimate=0 / interlaced=0 / bluray_compat=0 / constrained_intra=0 / bframes=8 / b_pyramid=2 / b_adapt=2 / b_bias=0 / direct=3 / weightb=1 / open_gop=0 / weightp=2 / keyint=250 / keyint_min=24 / scenecut=40 / intra_refresh=0 / rc=crf / mbtree=0 / crf=18.6 / qcomp=0.60 / qpmin=0 / qpmax=69 / qpstep=4 / ip_ratio=1.40 / pb_ratio=1.30 / aq=3:0.50
Default                                  : Yes
Forced                                   : No
Color range                              : Limited
Matrix coefficients                      : BT.709

Audio
ID                                       : 2
Format                                   : AC-3
Format/Info                              : Audio Coding 3
Commercial name                          : Dolby Digital
Codec ID                                 : A_AC3
Duration                                 : 1 h 47 min
Bit rate mode                            : Constant
Bit rate                                 : 640 kb/s
Channel(s)                               : 6 channels
Channel layout                           : L R C LFE Ls Rs
Sampling rate                            : 48.0 kHz
Frame rate                               : 31.250 FPS (1536 SPF)
Bit depth                                : 16 bits
Compression mode                         : Lossy
Stream size                              : 491 MiB (7%)
Language                                 : French
Service kind                             : Complete Main
Default                                  : Yes
Forced                                   : No

Text #1
ID                                       : 3
Format                                   : UTF-8
Codec ID                                 : S_TEXT/UTF8
Codec ID/Info                            : UTF-8 Plain Text
Duration                                 : 1 h 41 min
Bit rate                                 : 42 b/s
Count of elements                        : 1208
Stream size                              : 31.9 KiB (0%)
Title                                    : English (Forced)
Language                                 : English
Default                                  : Yes
Forced                                   : Yes

Text #2
ID                                       : 4
Format                                   : PGS
Muxing mode                              : zlib
Codec ID                                 : S_HDMV/PGS
Codec ID/Info                            : Picture based subtitle format used on BDs/HD-DVDs
Duration                                 : 1 h 41 min
Bit rate                                 : 24.7 kb/s
Count of elements                        : 2416
Stream size                              : 18.0 MiB (0%)
Language                                 : English
Default                                  : No
Forced                                   : No

Menu
00:00:00.000                             : en:Chapter 01
00:10:40.500                             : en:Chapter 02
00:19:59.917                             : en:Chapter 03
00:31:06.750                             : en:Chapter 04
00:40:48.750                             : en:Chapter 05
00:47:16.750                             : en:Chapter 06
00:59:06.625                             : en:Chapter 07
01:06:54.833                             : en:Chapter 08
01:14:02.375                             : en:Chapter 09
01:23:47.083                             : en:Chapter 10
01:32:24.125                             : en:Chapter 11
01:42:44.042                             : en:Chapter 12



                                                                                                                                                                                                        
                                                                                                                                                                                                                                                                                                                                                                                                                                                                                                                                                                                                                                                                                                                                                                                                                                                       0908fd299925da50f3cfcaae207f7e89.torrent (33.51 KB, 下载次数: 0)

回复

使用道具 举报

小黑屋|百度云资源论坛 |网站地图

本网站所有资源来自网络,如无意中侵犯了您的权益,请发邮件至 [email protected],立即清除相关链接

GMT+8, 2020-5-25 12:08 , Processed in 0.091960 second(s), 23 queries .

Powered by Discuz! X3.2

© 2001-2013 Comsenz Inc.

快速回复 返回顶部 返回列表