百度云资源论坛

 找回密码
 立即注册
搜索

爱玛/EMMA:上流贵族 Emma.2020.720p.BluRay.x264-DRONES 4.67GB

[复制链接]
帖子完整标题:爱玛/EMMA:上流贵族 Emma.2020.720p.BluRay.x264-DRONES 4.67GB




◎译  名 爱玛 / EMMA:上流贵族(港) / 艾玛.(台)
◎片  名 Emma.
◎年  代 2020
◎产  地 英国
◎类  别 剧情 / 喜剧
◎语  言 英语
◎上映日期 2020-02-14(英国) / 2020-02-21(美国)
◎IMDb评分  6.8/10 from 13798 users
◎片  长 124分钟
◎导  演 Autumn de Wilde
◎编  剧 Eleanor Catton / 简·奥斯汀 Jane Austen
◎主  演 安雅·泰勒-乔伊 Anya Taylor-Joy
       强尼·弗林 Johnny Flynn
       比尔·奈伊 Bill Nighy
       乔什·奥康纳 Josh O'Connor
       米娅·高斯 Mia Goth
       卡勒姆·特纳 Callum Turner
       米兰达·哈特 Miranda Hart
       杰玛·韦兰 Gemma Whelan
       鲁珀特·格雷夫斯 Rupert Graves
       塔尼娅·雷诺兹 Tanya Reynolds
       康纳·斯温德尔 Connor Swindells
       安珀·安德森 Amber Anderson
       克洛伊·皮里 Chloe Pirrie
       莱迪·托马斯 Letty Thomas
       Rose Shalloo
       Isabella Kennard-Barden
       Jill Buchanan


◎标  签 简·奥斯汀 | 英国 | 爱情 | 文学改编 | 2020 | 英国电影 | 经典 | 剧情

◎简  介  

  改编自简·奥斯汀备受喜爱的喜剧,重新描绘出寻找真爱与幸福结局的故事。 漂亮,聪颖,富有的爱玛·伍德豪斯在这个无聊平庸的小镇裡就像一只静不下来的女王蜂。 然而,在这充斥着反讽社会阶层与青涩的成长故事裡,爱玛在经历过一连串乱点鸳鸯和误判情势后,发现真爱一直在身边。
Video
ID                                       : 1
Format                                   : AVC
Format/Info                              : Advanced Video Codec
Format settings                          : CABAC / 8 Ref Frames
Format settings, CABAC                   : Yes
Format settings, Reference frames        : 8 frames
Codec ID                                 : V_MPEG4/ISO/AVC
Duration                                 : 2 h 4 min
Bit rate                                 : 4 583 kb/s
Width                                    : 1 280 pixels
Height                                   : 720 pixels
Display aspect ratio                     : 16:9
Frame rate mode                          : Constant
Frame rate                               : 23.976 (24000/1001/189150) FPS
Color space                              : YUV
Chroma subsampling                       : 4:2:0
Bit depth                                : 8 bits
Scan type                                : Progressive
Bits/(Pixel*Frame)                       : 0.207
Stream size                              : 3.98 GiB (85%)
Writing library                          : x264 core 160 r3000 33f9e14
Encoding settings                        : cabac=1 / ref=8 / deblock=1:-3:-3 / analyse=0x3:0x133 / me=umh / subme=9 / psy=1 / psy_rd=1.00:0.00 / mixed_ref=1 / me_range=16 / chroma_me=1 / trellis=2 / 8x8dct=1 / cqm=0 / deadzone=21,11 / fast_pskip=1 / chroma_qp_offset=-2 / threads=22 / lookahead_threads=1 / sliced_threads=0 / nr=0 / decimate=1 / interlaced=0 / bluray_compat=0 / constrained_intra=0 / bframes=3 / b_pyramid=2 / b_adapt=2 / b_bias=0 / direct=3 / weightb=1 / open_gop=0 / weightp=2 / keyint=250 / keyint_min=23 / scenecut=40 / intra_refresh=0 / rc_lookahead=60 / rc=crf / mbtree=1 / crf=15.0 / qcomp=0.60 / qpmin=0 / qpmax=69 / qpstep=4 / ip_ratio=1.40 / aq=1:1.00
Language                                 : English
Default                                  : Yes
Forced                                   : No

Audio #1
ID                                       : 2
Format                                   : AC-3
Format/Info                              : Audio Coding 3
Commercial name                          : Dolby Digital
Codec ID                                 : A_AC3
Duration                                 : 2 h 4 min
Bit rate mode                            : Constant
Bit rate                                 : 640 kb/s
Channel(s)                               : 6 channels
Channel layout                           : L R C LFE Ls Rs
Sampling rate                            : 48.0 kHz
Frame rate                               : 31.250 FPS (1536 SPF)
Bit depth                                : 16 bits
Compression mode                         : Lossy
Stream size                              : 569 MiB (12%)
Title                                    : English
Language                                 : English
Service kind                             : Complete Main
Default                                  : Yes
Forced                                   : No

Audio #2
ID                                       : 3
Format                                   : AAC LC
Format/Info                              : Advanced Audio Codec Low Complexity
Codec ID                                 : A_AAC-2
Duration                                 : 2 h 4 min
Bit rate                                 : 96.0 kb/s
Channel(s)                               : 2 channels
Channel layout                           : L R
Sampling rate                            : 48.0 kHz
Frame rate                               : 46.875 FPS (1024 SPF)
Compression mode                         : Lossy
Delay relative to video                  : 9 ms
Stream size                              : 86.3 MiB (2%)
Title                                    : Commentary
Language                                 : English
Default                                  : No
Forced                                   : No

Text #1
ID                                       : 4
Format                                   : PGS
Muxing mode                              : zlib
Codec ID                                 : S_HDMV/PGS
Codec ID/Info                            : Picture based subtitle format used on BDs/HD-DVDs
Duration                                 : 2 h 2 min
Bit rate                                 : 42.7 kb/s
Count of elements                        : 3028
Stream size                              : 37.5 MiB (1%)
Title                                    : English SDH
Language                                 : English
Default                                  : No
Forced                                   : No

Text #2
ID                                       : 5
Format                                   : PGS
Muxing mode                              : zlib
Codec ID                                 : S_HDMV/PGS
Codec ID/Info                            : Picture based subtitle format used on BDs/HD-DVDs
Duration                                 : 2 h 3 min
Bit rate                                 : 34.8 kb/s
Count of elements                        : 2586
Stream size                              : 30.7 MiB (1%)
Title                                    : Spanish
Language                                 : Spanish
Default                                  : No
Forced                                   : No

Text #3
ID                                       : 6
Format                                   : PGS
Muxing mode                              : zlib
Codec ID                                 : S_HDMV/PGS
Codec ID/Info                            : Picture based subtitle format used on BDs/HD-DVDs
Duration                                 : 2 h 3 min
Bit rate                                 : 38.6 kb/s
Count of elements                        : 2580
Stream size                              : 34.1 MiB (1%)
Title                                    : French
Language                                 : French
Default                                  : No
Forced                                   : No

Text #4
ID                                       : 7
Format                                   : PGS
Muxing mode                              : zlib
Codec ID                                 : S_HDMV/PGS
Codec ID/Info                            : Picture based subtitle format used on BDs/HD-DVDs
Duration                                 : 2 h 3 min
Bit rate                                 : 267 b/s
Count of elements                        : 26
Stream size                              : 242 KiB (0%)
Title                                    : French
Language                                 : French
Default                                  : No
Forced                                   : No

Menu
00:00:00.000                             : en:Chapter 01
00:07:32.827                             : en:Chapter 02
00:11:26.311                             : en:Chapter 03
00:16:21.564                             : en:Chapter 04
00:21:52.603                             : en:Chapter 05
00:25:30.988                             : en:Chapter 06
00:31:46.613                             : en:Chapter 07
00:35:59.657                             : en:Chapter 08
00:44:14.277                             : en:Chapter 09
00:47:31.724                             : en:Chapter 10
00:56:16.790                             : en:Chapter 11
01:00:16.321                             : en:Chapter 12
01:05:16.329                             : en:Chapter 13
01:09:28.289                             : en:Chapter 14
01:18:26.535                             : en:Chapter 15
01:25:05.058                             : en:Chapter 16
01:35:06.659                             : en:Chapter 17
01:43:40.965                             : en:Chapter 18
01:55:16.576                             : en:Chapter 19
01:57:23.036                             : en:Chapter 20



                                                                                                                                                                                                        
                                                                                                                                                                                                                                                                                                                                                                                                                                                                                                                                                                                                                                                                                                                                                                                                                                                       21ad7d9f57f514eccc11ec6368b54a40.torrent (47.4 KB, 下载次数: 0)

回复

使用道具 举报

小黑屋|百度云资源论坛 |网站地图

本网站所有资源来自网络,如无意中侵犯了您的权益,请发邮件至 [email protected],立即清除相关链接

GMT+8, 2020-5-28 10:19 , Processed in 0.099427 second(s), 23 queries .

Powered by Discuz! X3.2

© 2001-2013 Comsenz Inc.

快速回复 返回顶部 返回列表