百度云资源论坛

 找回密码
 立即注册
搜索

DC展台:魅影陌客 DC.Showcase.The.Phantom.Stranger.2020.720p.BluRay.x264-...

[复制链接]
百度云资源 发表于 2020-5-20 15:25:52 | 显示全部楼层 |阅读模式
帖子完整标题:DC展台:魅影陌客 DC.Showcase.The.Phantom.Stranger.2020.720p.BluRay.x264-WUTANG 332.66MB




◎译  名 DC展台:魅影陌客 / DC Showcase: The Phantom Stranger
◎片  名 The Phantom Stranger
◎年  代 2020
◎产  地 美国
◎类  别 动画 / 短片
◎语  言 英语
◎上映日期 2020-02-25(美国)
◎IMDb评分  6.8/10 from 59 users
◎片  长 15分钟
◎导  演 布鲁斯·提姆 Bruce W. Timm
◎编  剧 厄尼·阿特巴克 Ernie Altbacker / 约翰·布鲁姆 John Broome / 卡迈恩·因凡蒂诺 Carmine Infantino
◎主  演 格蕾·德丽斯勒 Grey DeLisle
       娜塔莉·兰德 Natalie Lander
       迈克尔·罗森巴姆 Michael Rosenbaum
       彼得·塞拉菲诺威茨 Peter Serafinowicz
       罗杰·克莱格·史密斯 Roger Craig Smith


◎标  签 DC | 动画 | 短片 | 动画短片 | 美国 | 2020 | 漫画改编 | 超级英雄

◎简  介  

  Warner Bros. Animation and Warner Bros. Home Entertainment, in partnership with DC, are producing five new DC Showcase animated shorts highlighting a wide variety of DC characters. The shorts will be released 2019-2020 and star Sgt. Rock, the Phantom Stranger, Adam Strange, Death and Batman.
Video
ID                                       : 1
Format                                   : AVC
Format/Info                              : Advanced Video Codec
Format settings                          : CABAC / 9 Ref Frames
Format settings, CABAC                   : Yes
Format settings, Reference frames        : 9 frames
Codec ID                                 : V_MPEG4/ISO/AVC
Duration                                 : 15 min 7 s
Bit rate                                 : 2 828 kb/s
Width                                    : 1 280 pixels
Height                                   : 720 pixels
Display aspect ratio                     : 16:9
Frame rate mode                          : Constant
Frame rate                               : 23.976 (24000/1001/189150) FPS
Color space                              : YUV
Chroma subsampling                       : 4:2:0
Bit depth                                : 8 bits
Scan type                                : Progressive
Bits/(Pixel*Frame)                       : 0.128
Stream size                              : 306 MiB (92%)
Writing library                          : x264 core 160 r3000 33f9e14
Encoding settings                        : cabac=1 / ref=9 / deblock=1:1:1 / analyse=0x3:0x133 / me=umh / subme=10 / psy=1 / psy_rd=0.50:0.00 / mixed_ref=1 / me_range=24 / chroma_me=1 / trellis=2 / 8x8dct=1 / cqm=0 / deadzone=21,11 / fast_pskip=0 / chroma_qp_offset=-2 / threads=22 / lookahead_threads=5 / sliced_threads=0 / nr=0 / decimate=1 / interlaced=0 / bluray_compat=0 / constrained_intra=0 / bframes=10 / b_pyramid=2 / b_adapt=2 / b_bias=0 / direct=3 / weightb=1 / open_gop=0 / weightp=2 / keyint=250 / keyint_min=23 / scenecut=40 / intra_refresh=0 / rc=crf / mbtree=0 / crf=18.6 / qcomp=0.60 / qpmin=0 / qpmax=69 / qpstep=4 / ip_ratio=1.40 / pb_ratio=1.30 / aq=3:0.90
Default                                  : Yes
Forced                                   : No
Color range                              : Limited
Matrix coefficients                      : BT.709

Audio
ID                                       : 2
Format                                   : AC-3
Format/Info                              : Audio Coding 3
Commercial name                          : Dolby Digital
Codec ID                                 : A_AC3
Duration                                 : 15 min 7 s
Bit rate mode                            : Constant
Bit rate                                 : 192 kb/s
Channel(s)                               : 2 channels
Channel layout                           : L R
Sampling rate                            : 48.0 kHz
Frame rate                               : 31.250 FPS (1536 SPF)
Bit depth                                : 16 bits
Compression mode                         : Lossy
Stream size                              : 20.8 MiB (6%)
Title                                    : English
Language                                 : English
Service kind                             : Complete Main
Default                                  : Yes
Forced                                   : No

Text #1
ID                                       : 3
Format                                   : PGS
Muxing mode                              : zlib
Codec ID                                 : S_HDMV/PGS
Codec ID/Info                            : Picture based subtitle format used on BDs/HD-DVDs
Duration                                 : 12 min 40 s
Bit rate                                 : 34.7 kb/s
Count of elements                        : 402
Stream size                              : 3.15 MiB (1%)
Language                                 : English
Default                                  : No
Forced                                   : No

Text #2
ID                                       : 4
Format                                   : PGS
Muxing mode                              : zlib
Codec ID                                 : S_HDMV/PGS
Codec ID/Info                            : Picture based subtitle format used on BDs/HD-DVDs
Duration                                 : 14 min 45 s
Bit rate                                 : 28.7 kb/s
Count of elements                        : 392
Stream size                              : 3.03 MiB (1%)
Language                                 : French
Default                                  : No
Forced                                   : No

Text #3
ID                                       : 5
Format                                   : PGS
Muxing mode                              : zlib
Codec ID                                 : S_HDMV/PGS
Codec ID/Info                            : Picture based subtitle format used on BDs/HD-DVDs
Duration                                 : 13 min 13 s
Bit rate                                 : 37.4 kb/s
Count of elements                        : 404
Stream size                              : 3.53 MiB (1%)
Language                                 : German
Default                                  : No
Forced                                   : No

Text #4
ID                                       : 6
Format                                   : PGS
Muxing mode                              : zlib
Codec ID                                 : S_HDMV/PGS
Codec ID/Info                            : Picture based subtitle format used on BDs/HD-DVDs
Duration                                 : 13 min 13 s
Bit rate                                 : 32.2 kb/s
Count of elements                        : 394
Stream size                              : 3.04 MiB (1%)
Language                                 : Spanish
Default                                  : No
Forced                                   : No

Menu
00:00:00.000                             : en:Chapter 01
00:08:17.914                             : en:Chapter 02
00:13:59.881                             : en:Chapter 03



                                                                                                                                                                                                        
                                                                                                                                                                                                                                                                                                                                                                                                                                                                                                                                                                                                                                                                                                                                                                                                                                                       97ae9e3830143e77ba81eabb565a96d3.torrent (7.18 KB, 下载次数: 0)

回复

使用道具 举报

小黑屋|百度云资源论坛 |网站地图

本网站所有资源来自网络,如无意中侵犯了您的权益,请发邮件至 [email protected],立即清除相关链接

GMT+8, 2020-7-4 07:38 , Processed in 0.124191 second(s), 23 queries .

Powered by Discuz! X3.2

© 2001-2013 Comsenz Inc.

快速回复 返回顶部 返回列表