百度云资源论坛

 找回密码
 立即注册
搜索

[BD-4K] 茜宝 Seberg.2019.HDR.2160p.WEB.h265-WATCHER 10.56GB

[复制链接]
百度云电影 发表于 2020-5-20 15:00:08 | 显示全部楼层 |阅读模式
帖子完整标题:茜宝 Seberg.2019.HDR.2160p.WEB.h265-WATCHER 10.56GB




◎译  名 茜宝 / Against All Enemies / 反击恶势力 / 四面受敌
◎片  名 Seberg
◎年  代 2019
◎产  地 美国 / 英国
◎类  别 剧情 / 惊悚 / 传记
◎语  言 英语
◎上映日期 2019-08-30(威尼斯电影节) / 2019-12-13(美国)
◎片  长 102分钟
◎导  演 本尼迪克特·安德鲁斯 Benedict Andrews
◎编  剧 乔·施雷普内尔 Joe Shrapnel / 安娜·沃特豪斯 Anna Waterhouse
◎主  演 克里斯汀·斯图尔特 Kristen Stewart
       安东尼·麦凯 Anthony Mackie
       玛格丽特·库里 Margaret Qualley
       莎姬·贝兹 Zazie Beetz
       文斯·沃恩 Vince Vaughn
       斯蒂芬·鲁特 Stephen Root
       杰克·奥康奈尔 Jack O'Connell
       詹姆斯·乔丹 James Jordan
       杰德·佩蒂约翰 Jade Pettyjohn
       科尔姆·米尼 Colm Meaney
       罗宾·托马斯 Robin Thomas
       瑟达吕斯·布兰 Ser'Darius Blain
       小科尼利厄斯·史密斯 Cornelius Smith Jr.
       伊万·阿达勒 Yvan Attal
       乔纳·福尔肯 Jonah Falcon
       希拉·M·洛克哈特 Sheila M. Lockhart
       克劳德·诺尔顿 Claude Knowlton
       泰德·霍利斯 Ted Hollis
       Victoria Barabas
       Sean Bolger
       Kerry Westcott
       Tobias Truvillion
       Jacob Taylor


◎标  签 传记 | 克里斯汀·斯图尔特 | 美国 | KristenStewart | 剧情 | 政治 | 2019 | 美国电影

◎简  介  

  克里斯汀·斯图尔特将主演政治惊悚新片《四面受敌》(Against All Enemies),饰演美国影星、法国新浪潮的短发女神珍·茜宝。杰克·奥康奈尔、安东尼·麦凯、玛格丽特·库里、科尔姆·米尼参演,本尼迪克特·安德鲁斯(《乌娜》)执导。
  讲述1960年代晚期,茜宝因同情和支持黑豹党(美国左翼黑人民权组织),并与其成员有来往,与民权运动家Hakim Jamal(麦凯饰演)也有情愫。她引起了美国联邦调查局的注意,一位年轻探员(奥康奈尔饰演)对其展开调查。
  由Automatik Entertainment制作,Fred Berger(《爱乐之城》《远山恋人》)、Brian Kavanaugh-Jones(《潜伏4》《午夜逃亡》)、Kate Garwood、Stephen Hopkins任制片人,Joe Shrapnel&Anna Waterhouse(《弗兰基与爱丽丝》)编写剧本,夏天开拍。
Video
ID                                       : 1
Format                                   : HEVC
Format/Info                              : High Efficiency Video Coding
HDR format                               : SMPTE ST 2094 App 4, Version 0
Codec ID                                 : V_MPEGH/ISO/HEVC
Duration                                 : 1 h 42 min
Bit rate                                 : 14.1 Mb/s
Width                                    : 3 840 pixels
Height                                   : 1 600 pixels
Display aspect ratio                     : 2.40:1
Frame rate mode                          : Constant
Frame rate                               : 23.976 (24000/1001/189150) FPS
Standard                                 : NTSC
Color space                              : YUV
Chroma subsampling                       : 4:2:0 (Type 2)
Bit depth                                : 10 bits
Bits/(Pixel*Frame)                       : 0.096
Stream size                              : 10.1 GiB (96%)
Default                                  : Yes
Forced                                   : No
Color range                              : Limited
Color primaries                          : BT.2020
Transfer characteristics                 : PQ
Matrix coefficients                      : BT.2020 non-constant
Mastering display color primaries        : Display P3
Mastering display luminance              : min: 0.0001 cd/m2, max: 1000 cd/m2
Maximum Content Light Level              : 340 cd/m2
Maximum Frame-Average Light Level        : 174 cd/m2

Audio
ID                                       : 2
Format                                   : E-AC-3
Format/Info                              : Enhanced AC-3
Commercial name                          : Dolby Digital Plus
Codec ID                                 : A_EAC3
Duration                                 : 1 h 42 min
Bit rate mode                            : Constant
Bit rate                                 : 640 kb/s
Channel(s)                               : 6 channels
Channel layout                           : L R C LFE Ls Rs
Sampling rate                            : 48.0 kHz
Frame rate                               : 31.250 FPS (1536 SPF)
Compression mode                         : Lossy
Stream size                              : 469 MiB (4%)
Language                                 : English
Service kind                             : Complete Main
Default                                  : Yes
Forced                                   : No

Text
ID                                       : 3
Format                                   : UTF-8
Codec ID                                 : S_TEXT/UTF8
Codec ID/Info                            : UTF-8 Plain Text
Duration                                 : 1 h 41 min
Bit rate                                 : 58 b/s
Count of elements                        : 1485
Stream size                              : 43.6 KiB (0%)
Language                                 : English
Default                                  : No
Forced                                   : No



                                                                                                                                                                                                        
                                                                                                                                                                                                                                                                                                                                                                                                                                                                                                                                                                                                                                                                                                                                                                                                                                                       979067abef9ca48093da1892cd653049.torrent (53.44 KB, 下载次数: 0)

回复

使用道具 举报

小黑屋|百度云资源论坛 |网站地图

本网站所有资源来自网络,如无意中侵犯了您的权益,请发邮件至 [email protected],立即清除相关链接

GMT+8, 2020-7-12 23:04 , Processed in 0.101355 second(s), 23 queries .

Powered by Discuz! X3.2

© 2001-2013 Comsenz Inc.

快速回复 返回顶部 返回列表