百度云资源论坛

 找回密码
 立即注册
搜索

[BD-4K] 汉密尔顿/汉密尔顿音乐剧 Hamilton.2020.HDR.2160p.WEB.h265-WATCHER 1...

[复制链接]
百度云电影 发表于 2020-8-16 06:39:34 | 显示全部楼层 |阅读模式
帖子完整标题:汉密尔顿/汉密尔顿音乐剧 Hamilton.2020.HDR.2160p.WEB.h265-WATCHER 19.56GB




◎译  名 汉密尔顿 / 汉密尔顿音乐剧
◎片  名 Hamilton
◎年  代 2020
◎产  地 美国
◎类  别 歌舞 / 历史
◎语  言 英语
◎上映日期 2020-07-03(美国)
◎IMDb评分  9.0/10 from 21045 users
◎片  长 160分钟
◎导  演 托马斯·凯尔 Thomas Kail
◎编  剧 林-曼努尔·米兰达 Lin-Manuel Miranda / 罗恩·切尔诺夫 Ron Chernow
◎主  演 林-曼努尔·米兰达 Lin-Manuel Miranda
       小莱斯利·奥多姆 Leslie Odom Jr.
       戴维德·迪格斯 Daveed Diggs
       芮妮·戈兹贝里 Renee Goldsberry
       菲莉帕·苏 Phillipa Soo
       乔纳森·格罗夫 Jonathan Groff
       克里斯·杰克逊 Chris Jackson
       雅斯曼·塞斯·琼斯 Jasmine Cephas Jones
       奥基里特·奥诺多瓦 Okieriete Onaodowan
       安东尼·拉莫斯 Anthony Ramos
       卡利·贝蒂奥尔 Carleigh Bettiol
       阿丽亚娜·德博斯 Ariana DeBose
       霍普·伊斯特布鲁克 Hope Easterbrook
       西德尼·詹姆斯·哈考特 Sydney James Harcourt
       萨莎·赫金斯 Sasha Hutchings
       伊弗雷姆·赛克斯 Ephraim Sykes


◎标  签 音乐剧 | 百老汇 | 美国 | 音乐 | 舞台剧 | 历史 | 2020 | 歌舞

◎简  介   

  Lin-Manuel Miranda 打造的经典百老汇音乐剧《汉密尔顿》在纽约理查德·罗杰斯剧场官录原卡现场
Video
ID                                       : 1
Format                                   : HEVC
Format/Info                              : High Efficiency Video Coding
HDR format                               : SMPTE ST 2086, HDR10 compatible
Codec ID                                 : V_MPEGH/ISO/HEVC
Duration                                 : 2 h 40 min
Bit rate                                 : 16.6 Mb/s
Width                                    : 3 840 pixels
Height                                   : 2 160 pixels
Display aspect ratio                     : 16:9
Frame rate mode                          : Constant
Frame rate                               : 23.976 (24000/1001/189150) FPS
Color space                              : YUV
Chroma subsampling                       : 4:2:0
Bit depth                                : 10 bits
Bits/(Pixel*Frame)                       : 0.083
Stream size                              : 18.6 GiB (96%)
Default                                  : Yes
Forced                                   : No
Color range                              : Limited
Color primaries                          : BT.2020
Transfer characteristics                 : PQ
Matrix coefficients                      : BT.2020 non-constant
Mastering display color primaries        : BT.2020
Mastering display luminance              : min: 0.0001 cd/m2, max: 1000 cd/m2

Audio
ID                                       : 2
Format                                   : E-AC-3 JOC
Format/Info                              : Enhanced AC-3 with Joint Object Coding
Commercial name                          : Dolby Digital Plus with Dolby Atmos
Codec ID                                 : A_EAC3
Duration                                 : 2 h 40 min
Bit rate mode                            : Constant
Bit rate                                 : 768 kb/s
Channel(s)                               : 6 channels
Channel layout                           : L R C LFE Ls Rs
Sampling rate                            : 48.0 kHz
Frame rate                               : 31.250 FPS (1536 SPF)
Compression mode                         : Lossy
Stream size                              : 880 MiB (4%)
Title                                    : English
Language                                 : English
Service kind                             : Complete Main
Default                                  : Yes
Forced                                   : No
Complexity index                         : 16
Number of dynamic objects                : 15
Bed channel count                        : 1 channel
Bed channel configuration                : LFE




                                                                                                                                                                                                        
                                                                                                                                                                                                                                                                                                                                                                                                                                                                                                                                                                                                                                                                                                                                                                                                                                                       a9816c3c3280da1d7b4139b021c2d812.zip (98.48 KB, 下载次数: 0)

回复

使用道具 举报

小黑屋|百度云资源论坛

本网站所有资源来自网络,如无意中侵犯了您的权益,请发邮件至 [email protected],立即清除相关链接

GMT+8, 2024-7-19 04:44 , Processed in 0.085033 second(s), 26 queries .

Powered by Discuz! X3.2

© 2001-2013 Comsenz Inc.

快速回复 返回顶部 返回列表