百度云资源论坛

 找回密码
 立即注册
搜索

[BD-4K] 仲夏夜惊魂/仲夏 Midsommar.2019.DC.2160p.BluRay.x264.8bit.SDR.DTS-HD.MA...

[复制链接]
百度云电影 发表于 2020-8-16 06:39:34 | 显示全部楼层 |阅读模式
帖子完整标题:仲夏夜惊魂/仲夏 Midsommar.2019.DC.2160p.BluRay.x264.8bit.SDR.DTS-HD.MA.5.1-SWTYBLZ 48.06GB




◎译  名 仲夏夜惊魂 / 仲夏 / 仲夏噩梦 / 仲夏节 / 仲夏魇(台)
◎片  名 Midsommar
◎年  代 2019
◎产  地 美国 / 瑞典 / 匈牙利
◎类  别 恐怖
◎语  言 英语 / 瑞典语
◎上映日期 2019-07-03(美国)
◎IMDb评分  7.1/10 from 166296 users
◎片  长 147分钟
◎导  演 阿里·艾斯特 Ari Aster
◎编  剧 阿里·艾斯特 Ari Aster
◎主  演 弗洛伦斯·皮尤 Florence Pugh
       杰克·莱诺 Jack Reynor
       维尔赫尔姆·布洛姆根 Vilhelm Blomgren
       威廉·杰克森·哈珀 William Jackson Harper
       威尔·保尔特 Will Poulter
       埃洛拉·托尔基亚 Ellora Torchia
       阿奇·马德基 Archie Madekwe
       亨里克·诺伦 Henrik Norlén
       贡内尔·弗雷德 Gunnel Fred
       伊莎贝尔·古瑞 Isabelle Grill
       朱莉娅·拉格纳森 Julia Ragnarsson
       伯恩·安德森 Bj?rn Andrésen
       安娜·阿斯特罗姆 Anna ?str?m
       丽芙·姆琼斯 Liv Mj?nes
       路易丝·彼得霍夫 Louise Peterhoff
       安琪·拉尔森 Anki Larsson
       拉斯·瓦林格 Lars V?ringer
       马茨·布洛姆格伦 Mats Blomgren
       安德斯·贝克曼 Anders Beckman


◎标  签 惊悚 | 邪教 | 恐怖 | 宗教 | 美国 | 悬疑 | 2019 | CULT

◎简  介   

  丹妮因姐姐及父母意外自杀而日渐崩溃,男友克里斯为了安抚丹妮而邀请丹妮与他的好友来到瑞典的一座偏远村庄参加了一个当地的夏季活动,以令她?怀姐姐及父母身亡的阴影。
  但活动却接二连三地发生怪事,而事情也朝着暴力、诡异的方向发展着,因此他们决定探索这里去解除疑惑。却发现这些美好的丰收背后与他们所信仰的宗教有关。事情的发展亦令丹妮的心理阴影日渐扩大,众人的情绪亦开始兴奋及崩溃起来,陷入分裂的局面??逼迫着他们做出最终的抉择:居留或献祭??

◎获奖情况  

  第91届美国国家评论协会奖(2019)
  十佳独立电影

  第25届美国评论家选择电影奖(2020)
  最佳科幻/恐怖片(提名)

  第35届美国独立精神奖(2020)
  最佳摄影(提名)

  第29届哥谭独立电影奖(2019)
  最佳女演员(提名) 弗洛伦丝·皮尤
  最佳剧本(提名) 阿里·艾斯特

  第54届美国国家影评人协会奖(2020)
  最佳女主角(提名) 弗洛伦丝·皮尤

  第40届伦敦影评人协会奖(2020)
  年度电影(提名)
  年度女主角(提名) 弗洛伦丝·皮尤
  年度英国/爱尔兰女演员(提名) 弗洛伦丝·皮尤

  第32届芝加哥影评人协会奖(2019)
  最佳视觉效果(提名)

  第13届底特律影评人协会奖(2019)
  最佳新人 弗洛伦丝·皮尤

  第23届美国在线影评人协会奖(2020)
  最佳女主角(提名) 弗洛伦丝·皮尤
Video
ID                                       : 1
Format                                   : AVC
Format/Info                              : Advanced Video Codec
Format settings                          : CABAC / 5 Ref Frames
Format settings, CABAC                   : Yes
Format settings, Reference frames        : 5 frames
Codec ID                                 : V_MPEG4/ISO/AVC
Duration                                 : 2 h 50 min
Bit rate                                 : 37.0 Mb/s
Width                                    : 3 840 pixels
Height                                   : 1 922 pixels
Display aspect ratio                     : 1.998
Frame rate mode                          : Constant
Frame rate                               : 23.976 (24000/1001/189150) FPS
Color space                              : YUV
Chroma subsampling                       : 4:2:0
Bit depth                                : 8 bits
Scan type                                : Progressive
Bits/(Pixel*Frame)                       : 0.209
Stream size                              : 44.0 GiB (92%)
Title                                    : Midsommar.2019.DC.2160p.BluRay.x264.8bit.SDR.DTS-HD.MA.5.1-SWTYBLZ
Writing library                          : x264 core 157 r2935 545de2f
Encoding settings                        : cabac=1 / ref=5 / deblock=1:-1:-1 / analyse=0x3:0x113 / me=umh / subme=10 / psy=1 / psy_rd=1.00:0.15 / mixed_ref=1 / me_range=48 / chroma_me=1 / trellis=2 / 8x8dct=1 / cqm=0 / deadzone=21,11 / fast_pskip=1 / chroma_qp_offset=-3 / threads=48 / lookahead_threads=4 / sliced_threads=0 / nr=0 / decimate=0 / interlaced=0 / bluray_compat=0 / constrained_intra=0 / bframes=3 / b_pyramid=2 / b_adapt=2 / b_bias=0 / direct=3 / weightb=1 / open_gop=0 / weightp=2 / keyint=250 / keyint_min=23 / scenecut=40 / intra_refresh=0 / rc_lookahead=50 / rc=crf / mbtree=1 / crf=18.0 / qcomp=0.60 / qpmin=0 / qpmax=69 / qpstep=4 / ip_ratio=1.40 / aq=1:1.00
Default                                  : Yes
Forced                                   : No

Audio #1
ID                                       : 2
ID in the original source medium         : 4352 (0x1100)
Format                                   : DTS XLL
Format/Info                              : Digital Theater Systems
Commercial name                          : DTS-HD Master Audio
Codec ID                                 : A_DTS
Duration                                 : 2 h 50 min
Bit rate mode                            : Variable
Bit rate                                 : 2 662 kb/s
Channel(s)                               : 6 channels
Channel layout                           : C L R Ls Rs LFE
Sampling rate                            : 48.0 kHz
Frame rate                               : 93.750 FPS (512 SPF)
Bit depth                                : 24 bits
Compression mode                         : Lossless
Stream size                              : 3.17 GiB (7%)
Title                                    : Midsommar.2019.DC.2160p.BluRay.x264.8bit.SDR.DTS-HD.MA.5.1-SWTYBLZ
Language                                 : English
Default                                  : Yes
Forced                                   : No
Original source medium                   : Blu-ray

Audio #2
ID                                       : 3
Format                                   : AC-3
Format/Info                              : Audio Coding 3
Commercial name                          : Dolby Digital
Codec ID                                 : A_AC3
Duration                                 : 2 h 50 min
Bit rate mode                            : Constant
Bit rate                                 : 640 kb/s
Channel(s)                               : 6 channels
Channel layout                           : L R C LFE Ls Rs
Sampling rate                            : 48.0 kHz
Frame rate                               : 31.250 FPS (1536 SPF)
Bit depth                                : 16 bits
Compression mode                         : Lossy
Stream size                              : 779 MiB (2%)
Title                                    : Midsommar.2019.DC.2160p.BluRay.x264.8bit.SDR.DTS-HD.MA.5.1-SWTYBLZ
Language                                 : English
Service kind                             : Complete Main
Default                                  : No
Forced                                   : No

Text #1
ID                                       : 4
Format                                   : UTF-8
Codec ID                                 : S_TEXT/UTF8
Codec ID/Info                            : UTF-8 Plain Text
Duration                                 : 2 h 34 min
Bit rate                                 : 40 b/s
Count of elements                        : 1424
Stream size                              : 45.6 KiB (0%)
Title                                    : English-SRT
Language                                 : English
Default                                  : Yes
Forced                                   : No

Text #2
ID                                       : 5
ID in the original source medium         : 4768 (0x12A0)
Format                                   : PGS
Muxing mode                              : zlib
Codec ID                                 : S_HDMV/PGS
Codec ID/Info                            : Picture based subtitle format used on BDs/HD-DVDs
Duration                                 : 2 h 49 min
Bit rate                                 : 29.7 kb/s
Count of elements                        : 3306
Stream size                              : 35.9 MiB (0%)
Title                                    : English-PGS
Language                                 : English
Default                                  : No
Forced                                   : No
Original source medium                   : Blu-ray

Menu
00:00:00.000                             : en:Chapter 01
00:12:34.378                             : en:Chapter 02
00:28:42.887                             : en:Chapter 03
00:47:34.935                             : en:Chapter 04
00:58:11.237                             : en:Chapter 05
01:14:23.041                             : en:Chapter 06
01:32:50.106                             : en:Chapter 07
01:45:44.046                             : en:Chapter 08
01:57:36.674                             : en:Chapter 09
02:12:00.579                             : en:Chapter 10
02:25:01.567                             : en:Chapter 11
02:39:02.658                             : en:Chapter 12






1227805994673b0795676290aadf9054.zip (121.68 KB, 下载次数: 0)

回复

使用道具 举报

小黑屋|百度云资源论坛

本网站所有资源来自网络,如无意中侵犯了您的权益,请发邮件至 [email protected],立即清除相关链接

GMT+8, 2024-7-15 20:54 , Processed in 0.106258 second(s), 26 queries .

Powered by Discuz! X3.2

© 2001-2013 Comsenz Inc.

快速回复 返回顶部 返回列表