百度云资源论坛

 找回密码
 立即注册
搜索

[BD-4K] 收税人 The.Tax.Collector.2020.2160p.WEB.H265-HUZZAH 10.24GB

[复制链接]
百度云电影 发表于 2020-8-16 06:39:34 | 显示全部楼层 |阅读模式
帖子完整标题:收税人 The.Tax.Collector.2020.2160p.WEB.H265-HUZZAH 10.24GB




◎译  名 收税人 / Tax Collector / 收账人
◎片  名 The Tax Collector
◎年  代 2020
◎产  地 美国
◎类  别 剧情 / 惊悚 / 犯罪
◎语  言 英语
◎上映日期 2020-08-07(美国)
◎导  演 大卫·阿耶 David Ayer
◎编  剧 大卫·阿耶 David Ayer
◎主  演 希亚·拉博夫 Shia LaBeouf
       拉娜·帕瑞娅 Lana Parrilla
       辛西娅·卡蒙娜 Cinthya Carmona
       艾尔皮迪娅·卡里洛 Elpidia Carrillo
       乔治·洛佩兹 George Lopez
       切尔茜·兰顿 Chelsea Rendon
       诺埃米·冈萨雷斯 Noemi Gonzalez
       布兰登·舒博 Brendan Schaub
       雷内?莫兰 Rene Moran
       胡安·卡洛斯·坎图 Juan Carlos Cantu
       鲍比·索托 Bobby Soto
       兰迪·冈萨雷斯 Randy Gonzalez
       Michelle Jubilee Gonzalez
       Jay Reeves
       Gabriela Flores
       Nayeli Esparza
       Lee Coc
       Valentina Latyna Plascencia
       Quinn Early


◎标  签 黑帮 | 犯罪 | 希亚·拉博夫 | 美国 | 大卫·阿耶 | 2020 | 美国电影 | 剧情

◎简  介   

  Shia LaBeouf将与David Ayer再度合作《收税人》。
  电影讲述男主角大卫·奎瓦斯(David Cuevas),他是一个看重家庭的男人,但工作却是为洛城黑帮高层收税的收账人。他与搭档Creeper穿梭于城市之间收账,用各种方法逼人们掏钱,而欠账的则会受到残忍的报复。然而,一位旧日敌人的归来让奎瓦斯所爱的一切都陷入危险之中。
Video
ID                                       : 1
Format                                   : HEVC
Format/Info                              : High Efficiency Video Coding
Codec ID                                 : V_MPEGH/ISO/HEVC
Duration                                 : 1 h 35 min
Bit rate                                 : 14.9 Mb/s
Width                                    : 3 840 pixels
Height                                   : 2 160 pixels
Display aspect ratio                     : 16:9
Frame rate mode                          : Constant
Frame rate                               : 24.000 FPS
Color space                              : YUV
Chroma subsampling                       : 4:2:0
Bit depth                                : 8 bits
Bits/(Pixel*Frame)                       : 0.075
Stream size                              : 9.95 GiB (98%)
Default                                  : Yes
Forced                                   : No
Color range                              : Limited
Color primaries                          : BT.709
Transfer characteristics                 : BT.709
Matrix coefficients                      : BT.709

Audio
ID                                       : 2
Format                                   : E-AC-3
Format/Info                              : Enhanced AC-3
Commercial name                          : Dolby Digital Plus
Codec ID                                 : A_EAC3
Duration                                 : 1 h 35 min
Bit rate mode                            : Constant
Bit rate                                 : 256 kb/s
Channel(s)                               : 6 channels
Channel layout                           : L R C LFE Ls Rs
Sampling rate                            : 48.0 kHz
Frame rate                               : 31.250 FPS (1536 SPF)
Compression mode                         : Lossy
Stream size                              : 175 MiB (2%)
Language                                 : English
Service kind                             : Complete Main
Default                                  : Yes
Forced                                   : No

Text
ID                                       : 3
Format                                   : UTF-8
Codec ID                                 : S_TEXT/UTF8
Codec ID/Info                            : UTF-8 Plain Text
Duration                                 : 1 h 28 min
Bit rate                                 : 58 b/s
Count of elements                        : 1252
Stream size                              : 37.8 KiB (0%)
Language                                 : English
Default                                  : No
Forced                                   : No





3f34859e843e30fb4bd2cd4e0385506b.zip (52.68 KB, 下载次数: 0)

回复

使用道具 举报

小黑屋|百度云资源论坛

本网站所有资源来自网络,如无意中侵犯了您的权益,请发邮件至 [email protected],立即清除相关链接

GMT+8, 2024-7-15 20:35 , Processed in 0.095392 second(s), 26 queries .

Powered by Discuz! X3.2

© 2001-2013 Comsenz Inc.

快速回复 返回顶部 返回列表